Ссылка на приватное зеркало нашего сайта всего за 1$. Внимание количество ограничено!!!

2 сезон

iTunes

1 сезон

1

iTunes

iTunes

iTunes

1 сезон

RePack

30

ИГРА 18+

pack

ВАЖНО

!!Акция!!

Alien_RageХит недели

RePack

MK11
pack

Забери бонус

RePack

jed

!!Акция!!

Alien_Rage

RePack

fifa19

RePack

Assassins Creed: Odyssey

RePack

NEED FOR SPEED™ PAYBACK

4 сезон

9 сезон

Бесстыжие 9 сезон

Все сериалы

все сериалы на PB.wtf

RePack

FAR CRY 5
  

Монстр-траки / Monster Trucks (Крис Уэдж) [2016, фантастика, боевик, комедия, BDRip 1080p] Дубляж - [Лицензия / iTunes] pb.wtf

Монстр-траки через торрент pb.wtf

Размер: 7.16 GB | Добавлен: 3 года 6 мес. назад | Торрент скачан:2978 раз
Скачать  

30-03-2017 04:30 Монстр-траки Скачать торрент  

Монстр-траки / Monster Trucks

Год выпуска: 2016
Страна: США, Канада
Жанр: фантастика, боевик, комедия, семейный

Продолжительность: 01:44:44
Перевод: Дубляж - [Лицензия / iTunes]
Субтитры: русские (Forced), русские (Full), английские (Full), английские (SDH)
Режиссер: Крис Уэдж
В ролях:

Лукас Тилл (Tripp), Джейн Леви (Meredith), Томас Леннон (Jim Dowd), Барри Пеппер (Sheriff Rick), Роб Лоу (Reece Tenneson), Дэнни Гловер (Mr. Weathers), Эми Райан (Cindy), Холт МакКэллани (Burke), Фрэнк Уэйли (Wade Coley), Алийа О’Брайен (Junior Scientist), Дэниэл Бэйкон (Technician), Фаустино Ди Бауда (Roughneck)
Описание:
Старшеклассник Трипп мечтает сбежать из скучного городка, где родился и вырос, и увлеченно собирает монстр-трак из обломков старых авто. И когда происшествие на буровой вышке высвобождает из-под земли удивительное создание, знающее толк в скорости, у Триппа появляется реальный шанс не только наконец-то изменить жизнь, но и обрести настоящего друга... Если, конечно, никто не вмешается.
Рейтинг:

MPAA: PG - Рекомендуется присутствие родителей
Качество: BDRip 1080p
Формат: MKV
Видео: AVC, 1920x800 (2.40:1), 8564 kbps, 23,976 fps, 0,233 bpp
Аудио №1: русский / AC3 / 5.1 / 48 kHz / 384 kbps / |Дубляж, iTunes|
Аудио №2: английский / AC3 / 5.1 / 48 kHz / 640 kbps /
Навигация по главам: есть
Релиз от:
General
Unique ID : 206319641555519938428944107615934095913 (0x9B37B7B33CE01617999BF1EA15EE2229)
Complete name : E:\Monster.Trucks.2016.BDRip.1080p.ExKinoRay.mkv
Format : Matroska
Format version : Version 4 / Version 2
File size : 7.16 GiB
Duration : 1 h 44 min
Overall bit rate : 9 783 kb/s
Encoded date : UTC 2017-03-29 23:17:15
Writing application : mkvmerge v10.0.0 ('To Drown In You') 64bit
Writing library : libebml v1.3.4 + libmatroska v1.4.5

Video
ID : 1
Format : AVC
Format/Info : Advanced Video Codec
Format profile : High@L4.1
Format settings, CABAC : Yes
Format settings, ReFrames : 4 frames
Codec ID : V_MPEG4/ISO/AVC
Duration : 1 h 44 min
Bit rate : 8 565 kb/s
Width : 1 920 pixels
Height : 800 pixels
Display aspect ratio : 2.40:1
Frame rate mode : Constant
Frame rate : 23.976 (24000/1001) FPS
Color space : YUV
Chroma subsampling : 4:2:0
Bit depth : 8 bits
Scan type : Progressive
Bits/(Pixel*Frame) : 0.233
Stream size : 6.27 GiB (88%)
Writing library : x264 core 149 r2771+45 509cceb 7mod [8-bit@all X86_64]
Encoding settings : cabac=1 / ref=4 / deblock=1:-3:-3 / analyse=0x3:0x113 / me=umh / subme=11 / psy=1 / fade_compensate=0.00 / psy_rd=1.00:0.05 / mixed_ref=1 / me_range=48 / chroma_me=1 / trellis=2 / 8x8dct=1 / cqm=0 / deadzone=21,11 / fast_pskip=0 / chroma_qp_offset=-2 / threads=12 / lookahead_threads=2 / sliced_threads=0 / nr=0 / decimate=1 / interlaced=0 / bluray_compat=0 / constrained_intra=0 / fgo=0 / bframes=8 / b_pyramid=2 / b_adapt=2 / b_bias=0 / direct=3 / weightb=1 / open_gop=0 / weightp=2 / keyint=250 / keyint_min=23 / scenecut=40 / intra_refresh=0 / rc_lookahead=40 / rc=crf / mbtree=0 / crf=18.0000 / qcomp=0.60 / qpmin=0:0:0 / qpmax=69:69:69 / qpstep=4 / vbv_maxrate=35000 / vbv_bufsize=35000 / crf_max=0.0 / nal_hrd=none / filler=0 / ip_ratio=1.40 / pb_ratio=1.30 / aq=3:1.00 / aq-sensitivity=10.00 / aq-factor=1.00:1.00:1.00 / aq2=0 / aq3=0
Language : English
Default : Yes
Forced : No
Color range : Limited
Matrix coefficients : BT.709

Audio #1
ID : 2
Format : AC-3
Format/Info : Audio Coding 3
Mode extension : CM (complete main)
Format settings, Endianness : Big
Codec ID : A_AC3
Duration : 1 h 44 min
Bit rate mode : Constant
Bit rate : 384 kb/s
Channel(s) : 6 channels
Channel positions : Front: L C R, Side: L R, LFE
Sampling rate : 48.0 kHz
Frame rate : 31.250 FPS (1536 spf)
Compression mode : Lossy
Delay relative to video : 27 ms
Stream size : 288 MiB (4%)
Title : iTunes
Language : Russian
Default : Yes
Forced : No

Audio #2
ID : 3
Format : AC-3
Format/Info : Audio Coding 3
Mode extension : CM (complete main)
Format settings, Endianness : Big
Codec ID : A_AC3
Duration : 1 h 44 min
Bit rate mode : Constant
Bit rate : 640 kb/s
Channel(s) : 6 channels
Channel positions : Front: L C R, Side: L R, LFE
Sampling rate : 48.0 kHz
Frame rate : 31.250 FPS (1536 spf)
Compression mode : Lossy
Stream size : 479 MiB (7%)
Title : Original
Language : English
Default : No
Forced : No

Text #1
ID : 4
Format : UTF-8
Codec ID : S_TEXT/UTF8
Codec ID/Info : UTF-8 Plain Text
Title : Forced
Language : Russian
Default : Yes
Forced : No

Text #2
ID : 5
Format : UTF-8
Codec ID : S_TEXT/UTF8
Codec ID/Info : UTF-8 Plain Text
Title : Full
Language : Russian
Default : No
Forced : No

Text #3
ID : 6
Format : UTF-8
Codec ID : S_TEXT/UTF8
Codec ID/Info : UTF-8 Plain Text
Title : Full
Language : English
Default : No
Forced : No

Text #4
ID : 7
Format : UTF-8
Codec ID : S_TEXT/UTF8
Codec ID/Info : UTF-8 Plain Text
Title : SDH
Language : English
Default : No
Forced : No

Menu
00:00:00.000 : en:00:00:00.000
00:06:09.369 : en:00:06:09.369
00:11:33.735 : en:00:11:33.735
00:18:58.971 : en:00:18:58.971
00:24:50.489 : en:00:24:50.489
00:34:57.137 : en:00:34:57.137
00:43:16.928 : en:00:43:16.928
00:47:54.872 : en:00:47:54.872
00:53:32.000 : en:00:53:32.000
00:58:24.668 : en:00:58:24.668
01:05:10.698 : en:01:05:10.698
01:13:26.652 : en:01:13:26.652
01:20:47.634 : en:01:20:47.634
01:26:58.505 : en:01:26:58.505
01:33:13.671 : en:01:33:13.671
01:38:44.669 : en:01:38:44.669
pb.wtf



Скачать Монстр-траки через торрент http://i2.imageban.ru/out/2017/03/30/d07f06560f19c3f4051fa3a7a6c64091.jpg Скачать фильм Монстр-траки через торрент бесплантно в хорошем качестве Описание: Старшеклассник Трипп мечтает сбежать из скучного городка, где родился и вырос, и увлеченно собирает монстр-трак из обломков ... 9.8 10 64
Info! Золотая раздача, скачанное не засчитывается.
Торрент: Зарегистрирован [2017-03-30 04:30] · скачан: 2 978 раз
Статус: √ проверено
Размер: 7.16 GB
Как cкачать? Как скачать Монстр-траки через торрент | qTorrent

% Раздел Тема Автор DL S | L
Фильмы 2016 [DVDrip, WEB-DLRip, HDrip] (DUB, MVO) [ 1.37 GB ] Монстр-траки / Monster Trucks [2016 HDRip] killermax2013 Скачать
1 | 0
Фильмы (Blu-ray, BD-Remux, HDDVD) [ 40.17 GB ] Монстр-траки / Monster Trucks [2016 Blu-Ray 1080p] sheker187 Скачать
1 | 0
Фильмы 2016 [DVDrip, WEB-DLRip, HDrip] (DUB, MVO) [ 2.18 GB ] Монстр-траки / Monster Trucks [2016 BDRip] - [] Twi7ter Скачать
1 | 0
Фильмы 2016 [DVDrip, WEB-DLRip, HDrip] (DUB, MVO) [ 745 MB ] Монстр-траки / Monster Trucks [2016 HDRip BD CEE() ] oleg8 Скачать
1 | 0
Фильмы 2016 [DVDrip, WEB-DLRip, HDrip] (DUB, MVO) [ 1.46 GB ] Монстр-траки / Monster Trucks [2016 BDRip] - [] Twi7ter Скачать
1 | 0
R.G. Resident & PiratVoice - Фильмы, Видео [ 2.31 GB ] Монстр-траки / Monster Trucks [2016 BDRip-AVC ] - schultz Скачать
1 | 0
R.G. Resident & PiratVoice - Фильмы, Видео [ 3.85 GB ] Монстр-траки / Monster Trucks [2016 BDRip 720p ] - schultz Скачать
1 | 0

28-11-2019 20:33  

Отключить всю рекламу на сайте

30-03-2017 06:54 Монстр-траки Скачать торрент  

...дубль? зачем?pb.wtf



30-03-2017 07:17 Монстр-траки Скачать торрент  

Userman4ik, о каком дубле вы говорите?pb.wtf



30-03-2017 07:24 Монстр-траки Скачать торрент  

-Lexx- писал(а):

Userman4ik, о каком дубле вы говорите?

удалили :)pb.wtf



30-03-2017 07:34 Монстр-траки Скачать торрент  

Userman4ik писал(а):

удалили :)

Да, вчера была раздача сцен-рипа.
Сейчас раздается рип с более лучшими настройками кодирования + с субтитрами, которых в той раздаче не было. А вчерашняя раздача поглощена. Остается рип более лучшего качества, что для трекеров вполне естественно.
Так что, никакого дубля.pb.wtf



03-04-2017 13:48 Монстр-траки Скачать торрент  

думал мультик а это кино = ))) для семейного просмотра ни чего так ) напомнило фильм где был живой фольцваген жук!pb.wtf



    Дорогой пользователь! Огромная просьба, поблагодарите релизера, оцените раздачу и оставьте свои комментарий, если Вы скачали Монстр-траки через торрент бесплатно! Внесите свою лепту в развитие PiratBit!
    Комментировать посты могут только пользователи прошедшие не сложную регистрацию
    Показать сообщения:    

    Монстр-траки через торрент
    Скачать бесплатно Монстр-траки
    Монстр-траки скачать торрент
    Монстр-траки смотреть онлайн
    Cкачать фильм Монстр-траки бесплатно
    Монстр-траки скачать торрент в хорошем качестве
    Монстр-траки смотреть онлайн бесплатно в хорошем качестве


    Вы не можете начинать темы
    Вы не можете отвечать на сообщения
    Вы не можете редактировать свои сообщения
    Вы не можете удалять свои сообщения
    Вы не можете голосовать в опросах
    Вы не можете прикреплять файлы к сообщениям
    Вы можете скачивать файлы