Ссылка на приватное зеркало нашего сайта всего за 1$. Внимание количество ограничено!!!

2 сезон

iTunes

1 сезон

1

iTunes

iTunes

iTunes

1 сезон

RePack

30

ИГРА 18+

pack

ВАЖНО

!!Акция!!

Alien_RageХит недели

RePack

MK11
pack

Забери бонус

RePack

jed

!!Акция!!

Alien_Rage

RePack

fifa19

RePack

Assassins Creed: Odyssey

RePack

NEED FOR SPEED™ PAYBACK

4 сезон

9 сезон

Бесстыжие 9 сезон

Все сериалы

все сериалы на PB.wtf

RePack

FAR CRY 5
  

Новые центурионы / The New Centurions (Ричард Флейшер) [1972, боевик, триллер, драма, криминал, BDRip 1080p by msltel] DUB, DVO, AVO pb.wtf

Новые центурионы через торрент pb.wtf

Размер: 9.33 GB | Добавлен: 3 года 6 мес. назад | Торрент скачан:44 раза
Скачать  

30-03-2017 06:16 Новые центурионы Скачать торрент  

Название: Новые центурионы
Оригинальное название: The New Centurions
Год выпуска: 1972
Страна: США
Жанр: боевик, триллер, драма, криминал
Продолжительность: 01:43:10
Перевод: дублированный, профессиональный двухголосый, авторский

Режиссёр: Ричард Флейшер

В ролях: Джордж К. Скотт, Стейси Кич, Джейн Александер ст., Скотт Уилсон, Розалинд Кэш, Эрик Эстрада, Клифтон Джеймс, Ричард Е. Кальк, Джеймс Сиккинг, Беверли Хоуп Эткинсон, Энн Рэмси, Киттен Нативидад, Девейн Джесси, Хилли Хикс, Пепе Серна, Адриана Шоу, Майкл Делано, Рид Морган, Беа Томпкинс, Генри Геллис

Описание: Новичок Рой Фехлер приходит в полицию и принимается за работу с рвением, приводящим к развалу собственной семьи. В напарники ему достаётся опытный и принципиальный коп, настоящий матерый волк. Каждый раз, выезжая на дежурство, они балансируют на грани жизни и смерти, строго придерживаясь в своей деятельности главного лозунга: «Защищать и служить»... Фильм по одноимённому роману Джозефа. Уэмбо (1970).



Качество: BDRip 1080p
Формат: MKV
Видео: MPEG-4 AVC, 11.8 Mбит/с, 1920x818, 23,976 кадра/с
Аудио 1: русский, AC3, 192 kbps, 2 ch, 48 kHz [дублированный, Мосфильм]
Аудио 2: русский, AC3, 192 kbps, 2 ch, 48 kHz [профессиональный двухголосый, HTB+]
Аудио 3: русский, DTS, 384 kbps, 1 ch, 48 kHz [авторский, Юрий Живов]
Аудио 4: английский, DTS, 384 kbps, 1 ch, 48 kHz [оригинал]
Субтитры: английские
Общее
Уникальный идентификатор : 227438903795616863154870063353725319254 (0xAB1B23B87DAF7CE88B9028A27A69F856)
Полное имя : D:\Video\Новые центурионы.1972.BDRip.1080p by msltel.mkv
Формат : Matroska
Версия формата : Version 4 / Version 2
Размер файла : 9,33 Гбайт
Продолжительность : 1 ч. 43 м.
Общий поток : 12,9 Мбит/сек
Название фильма : Rip by msltel
Дата кодирования : UTC 2017-03-30 02:27:36
Программа кодирования : mkvmerge v8.2.0 ('World of Adventure') 64bit
Библиотека кодирования : libebml v1.3.1 + libmatroska v1.4.2

Видео
Идентификатор : 1
Формат : AVC
Формат/Информация : Advanced Video Codec
Профиль формата : High@L4.1
Параметр CABAC формата : Да
Параметр ReFrames формата : 4 кадра
Идентификатор кодека : V_MPEG4/ISO/AVC
Продолжительность : 1 ч. 43 м.
Битрейт : 11,8 Мбит/сек
Ширина : 1920 пикселей
Высота : 818 пикселей
Соотношение сторон : 2,35:1
Режим частоты кадров : Постоянный
Частота кадров : 23,976 (24000/1001) кадра/сек
Цветовое пространство : YUV
Субдискретизация насыщенности : 4:2:0
Битовая глубина : 8 бит
Тип развёртки : Прогрессивная
Бит/(Пиксели*Кадры) : 0.313
Размер потока : 8,49 Гбайт (91%)
Библиотека кодирования : x264 core 146 r2538 121396c
Настройки программы : cabac=1 / ref=4 / deblock=1:-3:-2 / analyse=0x3:0x113 / me=umh / subme=11 / psy=1 / psy_rd=1.00:0.15 / mixed_ref=1 / me_range=32 / chroma_me=1 / trellis=2 / 8x8dct=1 / cqm=0 / deadzone=21,11 / fast_pskip=0 / chroma_qp_offset=-3 / threads=6 / lookahead_threads=1 / sliced_threads=0 / nr=0 / decimate=1 / interlaced=0 / bluray_compat=0 / constrained_intra=0 / bframes=10 / b_pyramid=2 / b_adapt=2 / b_bias=0 / direct=1 / weightb=1 / open_gop=0 / weightp=2 / keyint=230 / keyint_min=23 / scenecut=40 / intra_refresh=0 / rc_lookahead=40 / rc=crf / mbtree=0 / crf=20.2 / qcomp=0.60 / qpmin=0 / qpmax=69 / qpstep=4 / vbv_maxrate=62500 / vbv_bufsize=78125 / crf_max=0.0 / nal_hrd=none / filler=0 / ip_ratio=1.40 / pb_ratio=1.30 / aq=1:1.00
Язык : English
Default : Да
Forced : Нет

Аудио #1
Идентификатор : 2
Формат : AC-3
Формат/Информация : Audio Coding 3
Параметр Endianness формата : Big
Идентификатор кодека : A_AC3
Продолжительность : 1 ч. 43 м.
Вид битрейта : Постоянный
Битрейт : 192 Кбит/сек
Каналы : 2 канала
Расположение каналов : Front: L R
Частота : 48,0 КГц
Частота кадров : 31,250 кадров/сек (1536 spf)
Битовая глубина : 16 бит
Метод сжатия : С потерями
Размер потока : 142 Мбайт (1%)
Заголовок : DUB (Мосфильм)
Язык : Russian
ServiceKind/String : Complete Main
Default : Да
Forced : Нет

Аудио #2
Идентификатор : 3
Формат : AC-3
Формат/Информация : Audio Coding 3
Параметр Endianness формата : Big
Идентификатор кодека : A_AC3
Продолжительность : 1 ч. 43 м.
Вид битрейта : Постоянный
Битрейт : 192 Кбит/сек
Каналы : 2 канала
Расположение каналов : Front: L R
Частота : 48,0 КГц
Частота кадров : 31,250 кадров/сек (1536 spf)
Битовая глубина : 16 бит
Метод сжатия : С потерями
Размер потока : 142 Мбайт (1%)
Заголовок : DVO (HTB+)
Язык : Russian
ServiceKind/String : Complete Main
Default : Нет
Forced : Нет

Аудио #3
Идентификатор : 4
Формат : DTS
Формат/Информация : Digital Theater Systems
Режим : 16
Параметр Endianness формата : Big
Идентификатор кодека : A_DTS
Продолжительность : 1 ч. 43 м.
Вид битрейта : Постоянный
Битрейт : 384 Кбит/сек
Каналы : 1 канал
Расположение каналов : Front: C
Частота : 48,0 КГц
Частота кадров : 93,750 кадра/сек (512 spf)
Битовая глубина : 24 бит
Метод сжатия : С потерями
Размер потока : 283 Мбайт (3%)
Заголовок : AVO (Юрий Живов)
Язык : Russian
Default : Нет
Forced : Нет

Аудио #4
Идентификатор : 5
Формат : DTS
Формат/Информация : Digital Theater Systems
Режим : 16
Параметр Endianness формата : Big
Идентификатор кодека : A_DTS
Продолжительность : 1 ч. 43 м.
Вид битрейта : Постоянный
Битрейт : 384 Кбит/сек
Каналы : 1 канал
Расположение каналов : Front: C
Частота : 48,0 КГц
Частота кадров : 93,750 кадра/сек (512 spf)
Битовая глубина : 24 бит
Метод сжатия : С потерями
Размер потока : 283 Мбайт (3%)
Заголовок : original
Язык : English
Default : Нет
Forced : Нет

Текст
Идентификатор : 6
Формат : UTF-8
Идентификатор кодека : S_TEXT/UTF8
Идентификатор кодека/Информация : UTF-8 Plain Text
Продолжительность : 1 ч. 42 м.
Битрейт : 62 бит/сек
ElementCount : 1370
Размер потока : 46,6 Кбайт (0%)
Заголовок : английские
Язык : English
Default : Нет
Forced : Нет
pb.wtf



Скачать Новые центурионы через торрент http://hostpic.gq/img/2017-03/29/4q1evtwsbaetv1whfw2fuxeaj.jpg Скачать фильм Новые центурионы через торрент бесплантно в хорошем качестве Описание: Новичок Рой Фехлер приходит в полицию и принимается за работу с рвением, приводящим к развалу собственной семьи. В напарники ему ... 10 10 4
Info! Золотая раздача, скачанное не засчитывается.
Торрент: Зарегистрирован [2017-03-30 06:16] · скачан: 44 раз
Статус: √ проверено
Размер: 9.33 GB
Как cкачать? Как скачать Новые центурионы через торрент | qTorrent

% Раздел Тема Автор DL S | L
Фильмы [HD 720p, 1080p] (Хороший звук DUB, MVO) [ 3.97 GB ] Новые центурионы / The New Centurions [1972 BDRip 720p by msltel] DUB DVO AVO msltel Скачать
1 | 0

28-11-2019 20:33  

Отключить всю рекламу на сайте

30-03-2017 19:56 Новые центурионы Скачать торрент  

а патруль это римейк или они просто похожи?pb.wtf



    Дорогой пользователь! Огромная просьба, поблагодарите релизера, оцените раздачу и оставьте свои комментарий, если Вы скачали Новые центурионы через торрент бесплатно! Внесите свою лепту в развитие PiratBit!
    Комментировать посты могут только пользователи прошедшие не сложную регистрацию
    Показать сообщения:    

    Новые центурионы через торрент
    Скачать бесплатно Новые центурионы
    Новые центурионы скачать торрент
    Новые центурионы смотреть онлайн
    Cкачать фильм Новые центурионы бесплатно
    Новые центурионы скачать торрент в хорошем качестве
    Новые центурионы смотреть онлайн бесплатно в хорошем качестве


    Вы не можете начинать темы
    Вы не можете отвечать на сообщения
    Вы не можете редактировать свои сообщения
    Вы не можете удалять свои сообщения
    Вы не можете голосовать в опросах
    Вы не можете прикреплять файлы к сообщениям
    Вы можете скачивать файлы