Ссылка на приватное зеркало нашего сайта всего за 1$. Внимание количество ограничено!!!

2 сезон

iTunes

1 сезон

1

2 сезон

2 сезон

iTunes

1 сезон

RePack

30

Ultimate

ВАЖНО

ИГРА 18+

pack

RePack

MK11
pack

Забери бонус

RePack

jed

!!Акция!!

Alien_Rage

RePack

fifa19

RePack

Assassins Creed: Odyssey

RePack

NEED FOR SPEED™ PAYBACK

4 сезон

9 сезон

Бесстыжие 9 сезон

Все сериалы

все сериалы на PB.wtf

RePack

FAR CRY 5
  

Баскетс / Олух / Baskets / 2 сезон / 01-10 серии (10) (Джонатан Крисел) [2017, комедия, WEB-DLRip] [MVO] (Jaskier) pb.wtf

Баскетс через торрент pb.wtf

Размер: 2.93 GB | Добавлен: 3 года 7 мес. назад | Торрент скачан:12 раз
Скачать  

30-03-2017 07:53 Баскетс Скачать торрент  

Баскетс / Олух / Baskets
Год выхода: 2017
Страна: США
Жанр: комедия
Продолжительность: 1x~ 00:27:51
Перевод: Профессиональный (многоголосый закадровый) | Jaskier
Субтитры: нет

Режиссер: Джонатан Крисел

В ролях: Зак Галифианакис, Малия Пайлс, Том Проктер, Гарри Клеммонс, Джейсон Клеммонс, Крис МакЛафлин, Лиана Мендоса, Брент Уолкер, Sabina Sciubba, Майлз Андерсон и др.

Описание: Новый проект Зака Галифианакиса и Луи Си Кея.
История Чипа Баскетса - чудаковатого калифорнийца, мечтающего стать профессиональным клоуном. Поступление в престижную парижскую школу, где учат этому ремеслу, он проваливает и устраивается работать клоуном на родео.


Качество: WEB-DLRip
Формат: AVI
Видео кодек: XvID
Аудио кодек: MP3
Видео: XviD, ~ 1400 Кбит/с, 720x400, 23.976 fps
Аудио: MP3, 48,0 КГц, 2 ch, 128 kbps - Rus
Аудио: MP3, 48,0 КГц, 2 ch, 128 kbps - Eng

Луи Андерсона озвучивает тот же актёр, что и в сериале "Жизнь с Луи" делал отца (в оригинале Луи Андерсон).
General
Complete name : E:\Baskets. Season 2 (WEB-DL l 400p l Jaskier)\Baskets.S02E01.WEB-DLRip.Rus.Eng.JASKiER.avi
Format : AVI
Format/Info : Audio Video Interleave
File size : 301 MiB
Duration : 25mn 27s
Overall bit rate : 1 650 Kbps
Writing application : VirtualDubMod 1.5.10.3 | www.virtualdub-fr.org || (build 2550/release)
Writing library : VirtualDubMod build 2550/release

Video
ID : 0
Format : MPEG-4 Visual
Format profile : Advanced Simple@L5
Format settings, BVOP : 1
Format settings, QPel : No
Format settings, GMC : No warppoints
Format settings, Matrix : Default (MPEG)
Codec ID : XVID
Codec ID/Hint : XviD
Duration : 25mn 27s
Bit rate : 1 318 Kbps
Width : 720 pixels
Height : 400 pixels
Display aspect ratio : 16:9
Frame rate : 23.976 fps
Color space : YUV
Chroma subsampling : 4:2:0
Bit depth : 8 bits
Scan type : Progressive
Compression mode : Lossy
Bits/(Pixel*Frame) : 0.191
Stream size : 240 MiB (80%)
Writing library : XviD 73

Audio #1
ID : 1
Format : MPEG Audio
Format version : Version 1
Format profile : Layer 3
Mode : Joint stereo
Mode extension : MS Stereo
Codec ID : 55
Codec ID/Hint : MP3
Duration : 25mn 27s
Bit rate mode : Constant
Bit rate : 128 Kbps
Channel(s) : 2 channels
Sampling rate : 48.0 KHz
Compression mode : Lossy
Stream size : 23.3 MiB (8%)
Alignment : Aligned on interleaves

Audio #2
ID : 2
Format : MPEG Audio
Format version : Version 1
Format profile : Layer 3
Mode : Joint stereo
Mode extension : MS Stereo
Codec ID : 55
Codec ID/Hint : MP3
Duration : 25mn 27s
Bit rate mode : Constant
Bit rate : 128 Kbps
Channel(s) : 2 channels
Sampling rate : 48.0 KHz
Compression mode : Lossy
Stream size : 23.3 MiB (8%)
Alignment : Aligned on interleaves
pb.wtf



Скачать Баскетс через торрент http://i91.fastpic.ru/big/2017/0127/0c/04d73003e00dae6d18706297d3508a0c.jpg Скачать фильм Баскетс через торрент бесплантно в хорошем качестве Описание: Новый проект Зака Галифианакиса и Луи Си Кея.История Чипа Баскетса - чудаковатого калифорнийца, мечтающего стать профессиональным ... 5.5 10 2
Торрент: Зарегистрирован [2017-03-30 07:53] · скачан: 12 раз
Статус: √ проверено
Размер: 2.93 GB
Как cкачать? Как скачать Баскетс через торрент | qTorrent

% Раздел Тема Автор DL S | L
Зарубежные сериалы [ 7.78 GB ] Баскетс / Олух / Baskets / 2 сезон / 01-10 серии [2017 WEB-DL 720p] [DVO] killermax2013 Скачать
1 | 0

28-11-2019 20:33  

Отключить всю рекламу на сайте

    Дорогой пользователь! Огромная просьба, поблагодарите релизера, оцените раздачу и оставьте свои комментарий, если Вы скачали Баскетс через торрент бесплатно! Внесите свою лепту в развитие PiratBit!
    Комментировать посты могут только пользователи прошедшие не сложную регистрацию
    Показать сообщения:    

    Баскетс через торрент
    Скачать бесплатно Баскетс
    Баскетс скачать торрент
    Баскетс смотреть онлайн
    Cкачать фильм Баскетс бесплатно
    Баскетс скачать торрент в хорошем качестве
    Баскетс смотреть онлайн бесплатно в хорошем качестве


    Вы не можете начинать темы
    Вы не можете отвечать на сообщения
    Вы не можете редактировать свои сообщения
    Вы не можете удалять свои сообщения
    Вы не можете голосовать в опросах
    Вы не можете прикреплять файлы к сообщениям
    Вы можете скачивать файлы