Ссылка на приватное зеркало всего за 1$. Внимание количество ограничено!!!

iTunes

iTunes

iTunes

1

iTunes

iTunes

iTunes

iTunes

iTunes

30
pack

$ от Little Big

ВАЖНО

!!Акция!!

Alien_RageХит недели

RePack

Resident Evil 21

ИГРА 18+

pack

RePack

jed

!!Акция!!

Alien_Rage

RePack

fifa19

RePack

Assassins Creed: Odyssey

RePack

NEED FOR SPEED™ PAYBACK

4 сезон

9 сезон

Бесстыжие 9 сезон

Все сериалы

все сериалы на PB.wtf

RePack

FAR CRY 5
  

Видели ночь / All Nighter (Гэвин Вьесен / Gavin Wiesen) [2017, Комедия, WEB-DL 1080p] [MVO] (AlexFilm) pb.wtf

Видели ночь через торрент pb.wtf

Размер: 3.2 GB | Добавлен: 3 года 3 мес. назад | Торрент скачан:218 раз
Скачать  

30-03-2017 13:56 Видели ночь Скачать торрент  

Видели ночь / All Nighter
Год выхода: 2017
Выпущено: США / Green Hummingbird Entertainment
Жанр: комедия
Продолжительность: 01:25:35
Перевод: Профессиональный (многоголосый закадровый) AlexFilm

Субтитры: нет

Режиссер: Гэвин Вьесен / Gavin Wiesen

В ролях: Дж.К. Симмонс, Эмиль Хирш, Анали Типтон, Кристен Шаал, Шеннон Мари Вудворд, Таран Киллэм, Хантер Пэрриш, Джон Дэйли, Стефани Аллен, Джон Басс

О фильме: С тех пор как Джинни решила порвать с ним, Мартин не может прийти в себя. Его квартира постепенно превращается в помойку, как и вся его незамысловатая жизнь, которая так и катилась бы под откос, если бы однажды на его пороге не появился мистер Галло, злобный и надменный папаша Джинни. Какое-то время назад он потерял связь со своей дочкой и Мартин — его единственная зацепка. Несмотря на все его протесты, мистер Галло, не привыкший получать отказы, втягивает Мартина в безбашенное ночное приключение на улицах Лос-Анжелеса.


Релиз:

Без рекламы
Перевод: Александр Астрократов
Монтаж и сведение звука: Михаил Суслов
Озвучание: Екатерина Муравицкая, Маргарита Корш, Кирилл Патрино, Рустам Хусаинов, Алексей Никитин, Станислав Черсков, Михаил Суслов


Качество: WEB-DL 1080p
Формат: MKV
Видео: MPEG-4 AVC, 4479 Кбит/с, 1912x790, 23.976 fps
Аудио: 48 kHz, AC3 Dolby Digital, 3/2 (L,C,R,l,r) + LFE ch, ~384 kbps avg [MVO]
Аудио: 48 kHz, AC3 Dolby Digital, 3/2 (L,C,R,l,r) + LFE ch, ~384 kbps avg [ENG]
General
Unique ID : 170310119343160670457053831626504792242 (0x8020892E9D0EE405990C8EE5EFC3E8B2)
Complete name : E:\All.Nighter.2017.1080p.WEB-DL.720p.Rus.Eng.AlexFilm.mkv
Format : Matroska
Format version : Version 4 / Version 2
File size : 3.20 GiB
Duration : 1h 25mn
Overall bit rate : 5 345 Kbps
Movie name : All Nighter (2017) @ AlexFilm
Encoded date : UTC 2017-03-28 16:27:13
Writing application : mkvmerge v7.1.0 ('Good Love') 64bit built on Jul 27 2014 13:06:55
Writing library : libebml v1.3.0 + libmatroska v1.4.1
Attachements : cover_land.jpg / small_cover.jpg / small_cover_land.jpg / cover.jpg

Video
ID : 1
Format : AVC
Format/Info : Advanced Video Codec
Format profile : High@L4
Format settings, CABAC : Yes
Format settings, ReFrames : 5 frames
Codec ID : V_MPEG4/ISO/AVC
Duration : 1h 25mn
Bit rate : 4 471 Kbps
Width : 1 912 pixels
Height : 790 pixels
Display aspect ratio : 2.40:1
Frame rate mode : Constant
Frame rate : 23.976 fps
Color space : YUV
Chroma subsampling : 4:2:0
Bit depth : 8 bits
Scan type : Progressive
Bits/(Pixel*Frame) : 0.123
Stream size : 2.67 GiB (84%)
Title : All.Nighter.2017.1080p.WEB-DL.DD5.1.H264-FGT
Language : English
Default : Yes
Forced : No
Color range : Limited
Color primaries : BT.709
Transfer characteristics : BT.709
Matrix coefficients : BT.709

Audio #1
ID : 2
Format : AC-3
Format/Info : Audio Coding 3
Mode extension : CM (complete main)
Format settings, Endianness : Big
Codec ID : A_AC3
Duration : 1h 25mn
Bit rate mode : Constant
Bit rate : 384 Kbps
Channel(s) : 6 channels
Channel positions : Front: L C R, Side: L R, LFE
Sampling rate : 48.0 KHz
Compression mode : Lossy
Stream size : 235 MiB (7%)
Title : DD5.1 AlexFilm
Language : Russian
Default : Yes
Forced : No

Audio #2
ID : 3
Format : AC-3
Format/Info : Audio Coding 3
Mode extension : CM (complete main)
Format settings, Endianness : Big
Codec ID : A_AC3
Duration : 1h 25mn
Bit rate mode : Constant
Bit rate : 384 Kbps
Channel(s) : 6 channels
Channel positions : Front: L C R, Side: L R, LFE
Sampling rate : 48.0 KHz
Compression mode : Lossy
Stream size : 235 MiB (7%)
Title : DD5.1 Original
Language : English
Default : No
Forced : No

Menu
00:00:00.000 : en:Chapter 01
00:05:24.366 : en:Chapter 02
00:06:45.822 : en:Chapter 03
00:12:34.504 : en:Chapter 04
00:14:12.602 : en:Chapter 05
00:20:14.630 : en:Chapter 06
00:23:16.937 : en:Chapter 07
00:25:12.552 : en:Chapter 08
00:27:22.265 : en:Chapter 09
00:32:15.141 : en:Chapter 10
00:35:44.350 : en:Chapter 11
00:38:29.098 : en:Chapter 12
00:41:04.211 : en:Chapter 13
00:43:19.346 : en:Chapter 14
00:44:52.022 : en:Chapter 15
00:47:38.188 : en:Chapter 16
00:51:46.394 : en:Chapter 17
00:55:08.596 : en:Chapter 18
00:58:45.646 : en:Chapter 19
01:01:42.739 : en:Chapter 20
01:03:31.806 : en:Chapter 21
01:04:41.584 : en:Chapter 22
01:09:03.012 : en:Chapter 23
01:10:23.425 : en:Chapter 24
01:12:22.001 : en:Chapter 25
01:15:21.638 : en:Chapter 26
01:18:10.181 : en:Chapter 27
01:21:13.864 : en:Chapter 28
pb.wtf



Скачать Видели ночь через торрент http://i89.fastpic.ru/big/2017/0328/5d/5597ff6d3aee2e4ea9411314d6f2fe5d.jpg Скачать фильм Видели ночь через торрент бесплантно в хорошем качестве О фильме: С тех пор как Джинни решила порвать с ним, Мартин не может прийти в себя. Его квартира постепенно превращается в помойку, как и ... 10 10 5
Торрент: Зарегистрирован [2017-03-30 13:56] · скачан: 218 раз
Статус: √ проверено
Размер: 3.2 GB
Как cкачать? Как скачать Видели ночь через торрент | qTorrent

% Раздел Тема Автор DL S | L
Фильмы 2017 [DVDrip, WEB-DLRip, HDrip] (DUB, MVO) [ 1.46 GB ] Видели ночь / All Nighter [2017 BDRip] - [] Twi7ter Скачать
1 | 0
Фильмы 2017 [DVDrip, WEB-DLRip, HDrip] (DUB, MVO) [ 1.45 GB ] Видели ночь / All Nighter [2017 BDRip-AVC] - [] - ExKinoRay Enigma2010 Скачать
1 | 0
Фильмы (Blu-ray, BD-Remux, HDDVD) [ 21.08 GB ] Видели ночь / All Nighter [2017 BD Remux 1080p] bober100 Скачать
1 | 0
Фильмы [HD 720p, 1080p] (Хороший звук DUB, MVO) [ 4.25 GB ] Видели ночь / All Nighter [2017 BDRip 720p] bober100 Скачать
1 | 0
Фильмы [HD 720p, 1080p] (Хороший звук DUB, MVO) [ 8.75 GB ] Видели ночь / All Nighter [2017 BDRip 1080p] bober100 Скачать
1 | 0
Фильмы 2017 [DVDrip, WEB-DLRip, HDrip] (DUB, MVO) [ 1.42 GB ] Видели ночь / All Nighter [2017 BDRip] - Twi7ter Скачать
1 | 0
Фильмы 2017 [DVDrip, WEB-DLRip, HDrip] (DUB, MVO) [ 1.41 GB ] Видели ночь / All Nighter [2017 BDRip-AVC] MVO - ExKinoRay Enigma2010 Скачать
1 | 0

28-11-2019 20:33  

Отключить всю рекламу на сайте

30-03-2017 17:30 Видели ночь Скачать торрент  

Спасибо за раздачу! Как раз искал комедию посмотреть , еще раз спасибо за труд)pb.wtf



30-03-2017 17:38 Видели ночь Скачать торрент  

SLIV28 писал(а):

Спасибо за раздачу! Как раз искал комедию посмотреть , еще раз спасибо за труд)

pb.wtf



    Дорогой пользователь! Огромная просьба, поблагодарите релизера, оцените раздачу и оставьте свои комментарий, если Вы скачали Видели ночь через торрент бесплатно! Внесите свою лепту в развитие PiratBit!
    Комментировать посты могут только пользователи прошедшие не сложную регистрацию
    Показать сообщения:    

    Видели ночь через торрент
    Скачать бесплатно Видели ночь
    Видели ночь скачать торрент
    Видели ночь смотреть онлайн
    Cкачать фильм Видели ночь бесплатно
    Видели ночь скачать торрент в хорошем качестве
    Видели ночь смотреть онлайн бесплатно в хорошем качестве


    Вы не можете начинать темы
    Вы не можете отвечать на сообщения
    Вы не можете редактировать свои сообщения
    Вы не можете удалять свои сообщения
    Вы не можете голосовать в опросах
    Вы не можете прикреплять файлы к сообщениям
    Вы можете скачивать файлы