Ссылка на приватное зеркало нашего сайта всего за 1$. Внимание количество ограничено!!!

2 сезон

iTunes

1 сезон

1

2 сезон

2 сезон

iTunes

1 сезон

RePack

30

Новинка

ВАЖНО

ИГРА 18+

pack

RePack

MK11
pack

Забери бонус

RePack

jed

!!Акция!!

Alien_Rage

RePack

fifa19

RePack

Assassins Creed: Odyssey

RePack

NEED FOR SPEED™ PAYBACK

4 сезон

9 сезон

Бесстыжие 9 сезон

Все сериалы

все сериалы на PB.wtf

RePack

FAR CRY 5
  

Огнестрел / Shots Fired Сезон: 1 / Серии 4 из 10 (Джина Принс-Байтвуд, Регги Рок Байтвуд, Джон Дэвид Коулз) [2017 г., драма, криминал, WEBRip 1080p, Профессиональный многоголосый BaibaKo] pb.wtf

Огнестрел через торрент pb.wtf

Размер: 19.35 GB | Добавлен: 3 года 7 мес. назад | Торрент скачан:1 раз
Скачать  

30-03-2017 15:29 Огнестрел Скачать торрент  


Огнестрел / Shots Fired
Год выпуска: 2017
Страна: США
Жанр: драма, криминал
Продолжительность: 00:45:15 серия
Перевод: Профессиональный многоголосый BaibaKo
скриншот  
Субтитры: нет

Режиссер: Джина Принс-Байтвуд, Регги Рок Байтвуд, Джон Дэвид Коулз

Премьера в мире: 22 марта 2017

rating

В ролях: Санаа Лэтэн, Стэфан Джеймс, Хелен Хант, Ричард Дрейфусс, Аиша Хайндс, Уилл Пэттон, Стивен Мойер, Тристан Уайлдс, Джилл Хеннесси, Клэр-Хоуп Эшити

Описание: Cериал об эксперте-сыщике, который проводит расследование нескольких убийств на почве расовой ненависти в небольшом городке. Хелен Хант исполнит роль выдуманного губернатора Северной Каролины, Дрейфус – магната недвижимости и обладателя личной кутузки, сопричастного к убийствам, а Мойер – шерифа-ветерана, участвующего в расследовании.

Доп. информация: Присутствуют голосовые, видео и текстовые вставки рекламы.

Качество: WEBRip 1080p
Формат: MKV
Видео кодек: AVC
Аудио кодек: AC3
Видео: AVC High@L4,12,4 Мбит/сек,1920x1080 (1.778),23,976 кадра/сек
Аудио#1: русский,AC3,640 Кбит/сек,6 каналов,48,0 КГц
Аудио#2: английский,AC3,640 Кбит/сек,6 каналов,48,0 КГц
Релиз от:








General
Unique ID : 231909474313751468822832280058037032238 (0xAE7823DD623393CDADAE72238B88552E)
Complete name : D:\Shots.Fired.s01.HD1080p.WEBRip.Rus.Eng.BaibaKo.tv\Shots.Fired.s01e01.HD1080p.WEBRip.Rus.Eng.BaibaKo.tv.mkv
Format : Matroska
Format version : Version 4 / Version 2
File size : 4.53 GiB
Duration : 46mn 29s
Overall bit rate : 13.9 Mbps
Encoded date : UTC 2017-03-25 13:09:07
Writing application : mkvmerge v9.9.0 ('Pick Up') 64bit
Writing library : libebml v1.3.4 + libmatroska v1.4.5
DURATION : 00:46:29.600000000
NUMBER_OF_FRAMES : 87175
NUMBER_OF_BYTES : 223168000
_STATISTICS_WRITING_APP : mkvmerge v9.9.0 ('Pick Up') 64bit
_STATISTICS_WRITING_DATE_UTC : 2017-03-25 13:09:07
_STATISTICS_TAGS : BPS DURATION NUMBER_OF_FRAMES NUMBER_OF_BYTES

Video
ID : 1
Format : AVC
Format/Info : Advanced Video Codec
Format profile : High@L4
Format settings, CABAC : Yes
Format settings, ReFrames : 4 frames
Codec ID : V_MPEG4/ISO/AVC
Duration : 46mn 29s
Bit rate : 12.4 Mbps
Width : 1 920 pixels
Height : 1 080 pixels
Display aspect ratio : 16:9
Frame rate mode : Constant
Frame rate : 23.976 fps
Color space : YUV
Chroma subsampling : 4:2:0
Bit depth : 8 bits
Scan type : Progressive
Bits/(Pixel*Frame) : 0.249
Stream size : 4.02 GiB (89%)
Writing library : x264 core 148 r2744 b97ae06
Encoding settings : cabac=1 / ref=3 / deblock=1:0:0 / analyse=0x3:0x113 / me=hex / subme=7 / psy=1 / psy_rd=1.00:0.00 / mixed_ref=1 / me_range=16 / chroma_me=1 / trellis=1 / 8x8dct=1 / cqm=0 / deadzone=21,11 / fast_pskip=1 / chroma_qp_offset=-2 / threads=12 / lookahead_threads=2 / sliced_threads=0 / nr=0 / decimate=1 / interlaced=0 / bluray_compat=0 / constrained_intra=0 / bframes=3 / b_pyramid=2 / b_adapt=1 / b_bias=0 / direct=1 / weightb=1 / open_gop=0 / weightp=2 / keyint=240 / keyint_min=23 / scenecut=40 / intra_refresh=0 / rc_lookahead=40 / rc=crf / mbtree=1 / crf=18.0 / qcomp=0.60 / qpmin=0 / qpmax=69 / qpstep=4 / ip_ratio=1.40 / aq=1:1.00
Default : No
Forced : No

Audio #1
ID : 2
Format : AC-3
Format/Info : Audio Coding 3
Mode extension : CM (complete main)
Format settings, Endianness : Big
Codec ID : A_AC3
Duration : 46mn 29s
Bit rate mode : Constant
Bit rate : 640 Kbps
Channel(s) : 6 channels
Channel positions : Front: L C R, Side: L R, LFE
Sampling rate : 48.0 KHz
Compression mode : Lossy
Stream size : 213 MiB (5%)
Language : Russian
Default : Yes
Forced : No

Audio #2
ID : 3
Format : AC-3
Format/Info : Audio Coding 3
Mode extension : CM (complete main)
Format settings, Endianness : Big
Codec ID : A_AC3
Duration : 46mn 29s
Bit rate mode : Constant
Bit rate : 640 Kbps
Channel(s) : 6 channels
Channel positions : Front: L C R, Side: L R, LFE
Sampling rate : 48.0 KHz
Compression mode : Lossy
Stream size : 213 MiB (5%)
Language : English
Default : No
Forced : No

Внимание! Раздача ведётся путём добавления новых серий; при каждом добавлении создаётся новый торрент. Чтобы начать докачку новой серии, пользователям необходимо сделать следующее:
(1) остановить скачивание,
(2) удалить старый торрент у себя из клиента (старые серии удалять не надо),
(3) скачать новый торрент и запустить его у себя в клиенте вместо старого, при этом указать клиенту путь в старую папку куда и должно происходить скачивание новых серий.
Ваш клиент при этом должен произвести хеширование (проверку) старой папки (если не производит сам - помогите ему сделать это), и будет докачивать только те серии которых у вас ещё нет. Старые серии при этом не удаляются, а продолжают раздаваться!
Eсли вы уже удалили старые серии, то предотвратить повторную закачку старых серий можно, отжав галочку в соответствующих местах при запуске нового торрента. По возможности, желательно не удалять старые серии как можно дольше чтобы релизёр не столько продолжал раздавать старые серии, а смог сконцентрироваться на новых.
pb.wtf



Скачать Огнестрел через торрент http://pic1.kartinco.top/images/11/x1hu9.jpg Скачать фильм Огнестрел через торрент бесплантно в хорошем качестве Описание: Cериал об эксперте-сыщике, который проводит расследование нескольких убийств на почве расовой ненависти в небольшом городке. ... 10 10 4
Торрент: Зарегистрирован [2017-05-01 15:13] · скачан: 1 раз
Статус: √ проверено
Размер: 19.35 GB
Как cкачать? Как скачать Огнестрел через торрент | qTorrent



Последний раз редактировалось: Dusster (2017-05-01 15:13), всего редактировалось 3 раз(а)

28-11-2019 20:33  

Отключить всю рекламу на сайте

    Дорогой пользователь! Огромная просьба, поблагодарите релизера, оцените раздачу и оставьте свои комментарий, если Вы скачали Огнестрел через торрент бесплатно! Внесите свою лепту в развитие PiratBit!
    Комментировать посты могут только пользователи прошедшие не сложную регистрацию
    Показать сообщения:    

    Огнестрел через торрент
    Скачать бесплатно Огнестрел
    Огнестрел скачать торрент
    Огнестрел смотреть онлайн
    Cкачать фильм Огнестрел бесплатно
    Огнестрел скачать торрент в хорошем качестве
    Огнестрел смотреть онлайн бесплатно в хорошем качестве


    Вы не можете начинать темы
    Вы не можете отвечать на сообщения
    Вы не можете редактировать свои сообщения
    Вы не можете удалять свои сообщения
    Вы не можете голосовать в опросах
    Вы не можете прикреплять файлы к сообщениям
    Вы можете скачивать файлы