Ссылка на приватное зеркало нашего сайта всего за 1$. Внимание количество ограничено!!!

2 сезон

iTunes

1 сезон

1

iTunes

iTunes

iTunes

1 сезон

RePack

30

ИГРА 18+

pack

ВАЖНО

!!Акция!!

Alien_RageХит недели

RePack

MK11
pack

Забери бонус

RePack

jed

!!Акция!!

Alien_Rage

RePack

fifa19

RePack

Assassins Creed: Odyssey

RePack

NEED FOR SPEED™ PAYBACK

4 сезон

9 сезон

Бесстыжие 9 сезон

Все сериалы

все сериалы на PB.wtf

RePack

FAR CRY 5
  

Хэнкок / Hancock (Питер Берг) [2008, фантастика, боевик, драма, комедия, BDRip 1080p] [Расширенная версия/Unrated] 2xDUB (rus, ukr) pb.wtf

Хэнкок через торрент pb.wtf

Размер: 7.76 GB | Добавлен: 3 года 6 мес. назад | Торрент скачан:150 раз
Скачать  

30-03-2017 20:12 Хэнкок Скачать торрент  

Хэнкок / Hancock
[Расширенная версия/Unrated]
Год выпуска: 2008
Страна: США
Жанр: фантастика, боевик, драма, комедия
Продолжительность: 01:42:14
Перевод: Дубляж
Субтитры: Русские, английские

Режиссер: Питер Берг

rating

В ролях:

Уилл Смит, Шарлиз Терон, Джейсон Бейтман, Джей Хед, Эдди Марсан, Дэвид Мэтти, Метрикс Фиттен, Томас Леннон, Джонни Галэки, Хейли Норман

Описание:

Есть герои, есть супергерои, и есть Хэнкок. Обладание сверхспособностями предполагает ответственность, все знают это кроме него. За любую задачу он берётся с душой и лучшими намерениями, спасает жизни людей ценой нечеловеческих разрушений и неисчислимого ущерба. В конце концов, терпение общественности подходит к концу: люди благодарны своему местному герою, но иногда не понимают, чем заслужили такое наказание.
Хэнкок не из тех парней, кого волнует какое-то там общественное мнение, но однажды, после очередного подвига, спасая высокопоставленного пиарщика Рэя, он вдруг понимает, что в некотором смысле он может быть уязвим. С этим трудно смириться, особенно по мнению Мэри, жены Рэя, считающей, что Хэнкок попросту безнадежен.

Качество: BDRip 1080p
Формат: MKV
Видео кодек: H.264
Аудио кодек: AC3

Видео: 1920x800p (2.40:1), 23.976 fps, AVC MPEG-4 (H.264), High@L4.1 ~9520 kbps, 0.259 bit/pixel
Аудио#1: Русский: 48 kHz, AC3 Dolby Digital, 6 ch, ~448 kbps [Профессиональный (полное дублирование)]
Аудио#2: Украинский
: 48 kHz, AC3 Dolby Digital, 6 ch, ~448 kbps [Профессиональный (полное дублирование)]
Аудио#3: Английский: 48 kHz, AC3 Dolby Digital, 6 ch, ~448 kbps [Оригинал]
скриншот   скриншот   скриншот   скриншот  

Общее
Уникальный идентификатор : 229821946672461472148102387257350298033 (0xACE618CE445FF0DD8CBAD928B1B419B1)
Полное имя : Hancock.2008.BDRip.1080p.Rus.Ukr.Eng.mkv
Формат : Matroska
Версия формата : Version 2
Размер файла : 7,76 Гбайт
Продолжительность : 1 ч. 42 м.
Общий поток : 10,9 Мбит/сек
Название фильма : Хэнкок / Hancock (2008) | Unrated
Дата кодирования : UTC 2013-08-01 17:22:52
Программа кодирования : mkvmerge v5.8.0 ('No Sleep / Pillow') built on Sep 2 2012 15:37:04
Библиотека кодирования : libebml v1.2.3 + libmatroska v1.3.0

Видео
Идентификатор : 1
Формат : AVC
Формат/Информация : Advanced Video Codec
Профиль формата : High@L4.1
Параметр CABAC формата : Да
Параметр ReFrames формата : 5 кадров
Идентификатор кодека : V_MPEG4/ISO/AVC
Продолжительность : 1 ч. 42 м.
Битрейт : 9520 Кбит/сек
Ширина : 1920 пикселей
Высота : 800 пикселей
Соотношение сторон : 2,40:1
Частота кадров : 23,976 кадра/сек
Цветовое пространство : YUV
Субдискретизация насыщенности : 4:2:0
Битовая глубина : 8 бит
Тип развёртки : Прогрессивная
Бит/(Пиксели*Кадры) : 0.259
Размер потока : 6,64 Гбайт (86%)
Заголовок : Release by AlexKa
Библиотека кодирования : x264 core 135 r2345 f0c1c53
Настройки программы : cabac=1 / ref=5 / deblock=1:-3:-3 / analyse=0x3:0x133 / me=umh / subme=11 / psy=1 / psy_rd=1.00:0.00 / mixed_ref=1 / me_range=32 / chroma_me=1 / trellis=2 / 8x8dct=1 / cqm=0 / deadzone=21,11 / fast_pskip=0 / chroma_qp_offset=-2 / threads=12 / lookahead_threads=1 / sliced_threads=0 / nr=0 / decimate=0 / interlaced=0 / bluray_compat=0 / constrained_intra=0 / bframes=6 / b_pyramid=2 / b_adapt=2 / b_bias=0 / direct=3 / weightb=1 / open_gop=0 / weightp=2 / keyint=240 / keyint_min=23 / scenecut=40 / intra_refresh=0 / rc_lookahead=60 / rc=2pass / mbtree=0 / bitrate=9520 / ratetol=1.0 / qcomp=0.60 / qpmin=0 / qpmax=69 / qpstep=4 / cplxblur=20.0 / qblur=0.5 / vbv_maxrate=50000 / vbv_bufsize=62500 / nal_hrd=none / ip_ratio=1.40 / pb_ratio=1.30 / aq=1:0.70
Язык : English

Аудио #1
Идентификатор : 2
Формат : AC-3
Формат/Информация : Audio Coding 3
Расширение режима : CM (complete main)
Идентификатор кодека : A_AC3
Продолжительность : 1 ч. 42 м.
Вид битрейта : Постоянный
Битрейт : 448 Кбит/сек
Каналы : 6 каналов
Расположение каналов : Front: L C R, Side: L R, LFE
Частота : 48,0 КГц
Битовая глубина : 16 бит
Метод сжатия : С потерями
Размер потока : 328 Мбайт (4%)
Заголовок : Rus
Язык : Russian

Аудио #2
Идентификатор : 3
Формат : AC-3
Формат/Информация : Audio Coding 3
Расширение режима : CM (complete main)
Идентификатор кодека : A_AC3
Продолжительность : 1 ч. 42 м.
Вид битрейта : Постоянный
Битрейт : 448 Кбит/сек
Каналы : 6 каналов
Расположение каналов : Front: L C R, Side: L R, LFE
Частота : 48,0 КГц
Битовая глубина : 16 бит
Метод сжатия : С потерями
Размер потока : 328 Мбайт (4%)
Заголовок : Ukr
Язык : Ukrainian

Аудио #3
Идентификатор : 4
Формат : AC-3
Формат/Информация : Audio Coding 3
Расширение режима : CM (complete main)
Идентификатор кодека : A_AC3
Продолжительность : 1 ч. 42 м.
Вид битрейта : Постоянный
Битрейт : 448 Кбит/сек
Каналы : 6 каналов
Расположение каналов : Front: L C R, Side: L R, LFE
Частота : 48,0 КГц
Битовая глубина : 16 бит
Метод сжатия : С потерями
Размер потока : 328 Мбайт (4%)
Заголовок : Eng
Язык : English

Текст #1
Идентификатор : 5
Формат : UTF-8
Идентификатор кодека : S_TEXT/UTF8
Идентификатор кодека/Информация : UTF-8 Plain Text
Заголовок : Ukr forced
Язык : Ukrainian

Текст #2
Идентификатор : 6
Формат : UTF-8
Идентификатор кодека : S_TEXT/UTF8
Идентификатор кодека/Информация : UTF-8 Plain Text
Заголовок : Rus
Язык : Russian

Текст #3
Идентификатор : 7
Формат : UTF-8
Идентификатор кодека : S_TEXT/UTF8
Идентификатор кодека/Информация : UTF-8 Plain Text
Заголовок : Eng
Язык : English

Меню
00:00:00.000 : :Chapter 01
00:11:45.871 : :Chapter 02
00:17:26.503 : :Chapter 03
00:23:55.058 : :Chapter 04
00:28:24.953 : :Chapter 05
00:35:40.554 : :Chapter 06
00:42:44.103 : :Chapter 07
00:47:00.525 : :Chapter 08
00:49:54.991 : :Chapter 09
00:54:07.869 : :Chapter 10
01:02:59.942 : :Chapter 11
01:08:20.387 : :Chapter 12
01:15:13.300 : :Chapter 13
01:21:32.429 : :Chapter 14
01:25:35.171 : :Chapter 15
01:31:02.415 : :Chapter 16

pb.wtf



Скачать Хэнкок через торрент http://pic1.kartinco.top/images/11/a6hcz.jpg Скачать фильм Хэнкок через торрент бесплантно в хорошем качестве Описание: Есть герои, есть супергерои, и есть Хэнкок. Обладание сверхспособностями предполагает ответственность, все знают это кроме него. ... 10 10 14
Info! Золотая раздача, скачанное не засчитывается.
Торрент: Зарегистрирован [2017-03-30 20:12] · скачан: 150 раз
Статус: √ проверено
Размер: 7.76 GB
Как cкачать? Как скачать Хэнкок через торрент | qTorrent

% Раздел Тема Автор DL S | L
Ultra HD (UHD: 2K, 4K, 8K) — видео сверхвысокой чёткости [ 40.33 GB ] Хэнкок / Hancock [2008 UHD BDRemux 2160p] DUB [] [театральная версия фильма] sheker187 Скачать
1 | 0
Фильмы (Blu-ray, BD-Remux, HDDVD) [ 23.83 GB ] Основатель / The Founder [2016 биография история BDRemux 1080p] [MVO] killermax2013 Скачать
1 | 0
T Релизы по Парсеру [Игры, Сериалы и Фильмы и другое...] [ 1.46 GB ] Хэнкок / Hancock [2008 BDRip-AVC] [Расширенная версия] DUB + Original + Subs sanekbest1 Скачать
1 | 0
Фильмы [HD 720p, 1080p] (Хороший звук DUB, MVO) [ 5.75 GB ] Невидимая сторона / The Blind Side [2009 биография BDRip 720p] MVO + Original + Sub _denis_100 Скачать
1 | 0
Фильмы (HD 720p, 1080p) (48-60 fps) [ 7.35 GB ] Хэнкок / Hancock [2008 BDRip 720p ] 60 fps -=DANTE=- Скачать
2 | 0
Фильмы 2013 [DVDrip, WEB-DLRip, HDrip] [ 2.05 GB ] Спасти мистера Бэнкса / Saving Mr. Banks [2013 НDRip история биография] diletant Скачать
2 | 0
Фильмы (Blu-ray, BD-Remux, HDDVD) [ 39.03 GB ] Спасти мистера Бэнкса / Saving Mr. Banks [2013 история биография музыка Blu-ray CEE 1080p AVC DD5.1] voovaz Скачать
1 | 0

28-11-2019 20:33  

Отключить всю рекламу на сайте

30-03-2017 20:52 Хэнкок Скачать торрент  

Жаль в 3D не было или 4Kpb.wtf



    Дорогой пользователь! Огромная просьба, поблагодарите релизера, оцените раздачу и оставьте свои комментарий, если Вы скачали Хэнкок через торрент бесплатно! Внесите свою лепту в развитие PiratBit!
    Комментировать посты могут только пользователи прошедшие не сложную регистрацию
    Показать сообщения:    

    Хэнкок через торрент
    Скачать бесплатно Хэнкок
    Хэнкок скачать торрент
    Хэнкок смотреть онлайн
    Cкачать фильм Хэнкок бесплатно
    Хэнкок скачать торрент в хорошем качестве
    Хэнкок смотреть онлайн бесплатно в хорошем качестве


    Вы не можете начинать темы
    Вы не можете отвечать на сообщения
    Вы не можете редактировать свои сообщения
    Вы не можете удалять свои сообщения
    Вы не можете голосовать в опросах
    Вы не можете прикреплять файлы к сообщениям
    Вы можете скачивать файлы