новый адрес
Ссылка на приватное зеркало всего за 1$. Внимание количество ограничено!!!

iTunes

1+1

iTunes

мы

WEB-DL

1

iTunes

Чернобыль

iTunes

Ральф против интернета

Лицензия

ПШазам

Лицензия

Оно 2

Лицензия

30
pack

Вам бонус

ВАЖНО

!!Акция!!

Alien_RageХит недели

RePack

Resident Evil 21

ИГРА 18+

pack

RePack

jed

!!Акция!!

Alien_Rage

RePack

fifa19

RePack

Assassins Creed: Odyssey

RePack

NEED FOR SPEED™ PAYBACK

3 сезон

9 сезон

Бесстыжие 9 сезон

Все сериалы

все сериалы на PB.wtf

RePack

FAR CRY 5
Ребята, катастрофически не хватает 1900р. для оплаты серверов за Октябрь (всвязи с блокировками трафик упал в 3 раза), 1-2р., выручайте.
  

Дачная поездка сержанта Цыбули (Николай Литус, Виталий Шунько) [1979, комедия, военный, HDTVRip-AVC] ExKinoRay pb.wtf

Дачная поездка сержанта Цыбули через торрент pb.wtf

Размер: 1.39 GB | Добавлен: 2 года 8 мес. назад | Торрент скачан:39 раз
Скачать  

30-03-2017 23:13 Дачная поездка сержанта Цыбули Скачать торрент  

Информация о фильме
Название: Дачная поездка сержанта Цыбули
Год выхода: 1979
Страна: СССР
Студия: Киностудия им. А. Довженко
Жанр: Комедия, военный
Продолжительность: 01:12:29
Перевод: Не требуется
Режиссер: Николай Литус, Виталий Шунько
В ролях: Сергей Иванов, Владимир Алексеенко, Михаил Кокшенов, Надежда Смирнова, Володя Чубарев, Михаил Львов, Нина Реус, Степан Олексенко, Сергей Свечников, Маргарита Криницына, Николай Литус, Борис Сабуров, Евгений Мажуга, Полина (Пелагея) Куманченко, Сергей Шеметило, Владимир Бездомников, Геннадий Болотов, Георгий Дворников, Леонид Марченко, Юрий Мысенков, Лев Перфилов, Анатолий Помилуйко, Анатолий Сиротенко, Анатолий Скорякин, Василий Фущич, Виктор Андриенко

Описание:
Разведчик, сержант Цыбуля, успешно выполнив очередное задание, снова отправляется в тыл к немцам. Теперь ему поручено доставить партизанам медикаменты, продовольствие и взрывчатку.

Приняв костры врага за опознавательные сигналы партизан, Цыбуля приземляется в логове противника… Но, перехитрив своих преследователей и захватив в плен немецкого майора, он все-таки прорывается к партизанам на вражеском бронепоезде.

rating

Файл
Качество: HDTVRip (AVC)
Видео: MPEG-4 AVC, 1024x438 (2.35:1), 2357 kbps, 25.000 fps, 0,210 bpp
Аудио: AC3 / 2.0 / 48 kHz / 384 kbps /
General
Unique ID : 185917362761261410137111191610371876933 (0x8BDE61B158AFAB83800ABB2CA3FC2845)
Complete name : D:\Dachnaya.poezdka.serganta.Cubyli.1980.HDTVRip.AVC.ExKinoRay.mkv
Format : Matroska
Format version : Version 2
File size : 1.39 GiB
Duration : 1 h 12 min
Overall bit rate : 2 742 kb/s
Movie name : Дачная поездка сержанта Цыбули 1980 from ExKinoRay
Encoded date : UTC 2017-03-30 20:53:03
Writing application : mkvmerge v5.8.0 ('No Sleep / Pillow') built on Sep 2 2012 15:37:04
Writing library : libebml v1.2.3 + libmatroska v1.3.0

Video
ID : 1
Format : AVC
Format/Info : Advanced Video Codec
Format profile : High@L4.1
Format settings, CABAC : Yes
Format settings, ReFrames : 12 frames
Codec ID : V_MPEG4/ISO/AVC
Duration : 1 h 12 min
Bit rate : 2 357 kb/s
Width : 1 024 pixels
Height : 438 pixels
Display aspect ratio : 2.35:1
Frame rate mode : Constant
Frame rate : 25.000 FPS
Color space : YUV
Chroma subsampling : 4:2:0
Bit depth : 8 bits
Scan type : Progressive
Bits/(Pixel*Frame) : 0.210
Stream size : 1.17 GiB (84%)
Title : Enigma
Writing library : x264 core 144 r2525 40bb568
Encoding settings : cabac=1 / ref=12 / deblock=1:-2:-2 / analyse=0x3:0x113 / me=umh / subme=10 / psy=1 / psy_rd=1.00:0.05 / mixed_ref=1 / me_range=32 / chroma_me=1 / trellis=2 / 8x8dct=1 / cqm=0 / deadzone=21,11 / fast_pskip=1 / chroma_qp_offset=-3 / threads=12 / lookahead_threads=3 / sliced_threads=0 / nr=0 / decimate=1 / interlaced=0 / bluray_compat=0 / constrained_intra=0 / bframes=10 / b_pyramid=2 / b_adapt=2 / b_bias=0 / direct=3 / weightb=1 / open_gop=0 / weightp=2 / keyint=250 / keyint_min=25 / scenecut=40 / intra_refresh=0 / rc_lookahead=40 / rc=2pass / mbtree=0 / bitrate=2357 / ratetol=1.0 / qcomp=0.60 / qpmin=0 / qpmax=51 / qpstep=4 / cplxblur=20.0 / qblur=0.5 / vbv_maxrate=50000 / vbv_bufsize=62500 / nal_hrd=none / filler=0 / ip_ratio=1.40 / pb_ratio=1.30 / aq=1:1.00
Default : Yes
Forced : No
Color range : Limited
Color primaries : BT.709
Transfer characteristics : BT.709
Matrix coefficients : BT.709

Audio
ID : 2
Format : AC-3
Format/Info : Audio Coding 3
Mode extension : CM (complete main)
Format settings, Endianness : Big
Codec ID : A_AC3
Duration : 1 h 12 min
Bit rate mode : Constant
Bit rate : 384 kb/s
Channel(s) : 2 channels
Channel positions : Front: L R
Sampling rate : 48.0 kHz
Frame rate : 31.250 FPS (1536 spf)
Compression mode : Lossy
Stream size : 199 MiB (14%)
Language : Russian
Default : Yes
Forced : No
Релиз от:

Автор релиза:

pb.wtf



Скачать Дачная поездка сержанта Цыбули через торрент http://s018.radikal.ru/i509/1604/1c/1d7674001244.png Скачать фильм Дачная поездка сержанта Цыбули через торрент бесплантно в хорошем качестве Описание:Разведчик, сержант Цыбуля, успешно выполнив очередное задание, снова отправляется в тыл к немцам. Теперь ему поручено доставить ... 10 10 2
Info! Золотая раздача, скачанное не засчитывается.
Торрент: Зарегистрирован [2017-03-30 23:13] · скачан: 39 раз
Статус: √ проверено
Размер: 1.39 GB
Как cкачать? Как скачать Дачная поездка сержанта Цыбули через торрент | qTorrent

28-11-2019 20:33  

Отключить всю рекламу на сайте

    Дорогой пользователь! Огромная просьба, поблагодарите релизера, оцените раздачу и оставьте свои комментарий, если Вы скачали Дачная поездка сержанта Цыбули через торрент бесплатно! Внесите свою лепту в развитие PiratBit!
    Комментировать посты могут только пользователи прошедшие не сложную регистрацию
    Показать сообщения:    

    Дачная поездка сержанта Цыбули через торрент
    Скачать бесплатно Дачная поездка сержанта Цыбули
    Дачная поездка сержанта Цыбули скачать торрент
    Дачная поездка сержанта Цыбули смотреть онлайн
    Cкачать фильм Дачная поездка сержанта Цыбули бесплатно
    Дачная поездка сержанта Цыбули скачать торрент в хорошем качестве
    Дачная поездка сержанта Цыбули смотреть онлайн бесплатно в хорошем качестве


    Вы не можете начинать темы
    Вы не можете отвечать на сообщения
    Вы не можете редактировать свои сообщения
    Вы не можете удалять свои сообщения
    Вы не можете голосовать в опросах
    Вы не можете прикреплять файлы к сообщениям
    Вы можете скачивать файлы