Ссылка на приватное зеркало нашего сайта всего за 1$. Внимание количество ограничено!!!

2 сезон

iTunes

1 сезон

1

iTunes

iTunes

iTunes

1 сезон

RePack

30

ИГРА 18+

pack

ВАЖНО

!!Акция!!

Alien_RageХит недели

RePack

MK11
pack

Забери бонус

RePack

jed

!!Акция!!

Alien_Rage

RePack

fifa19

RePack

Assassins Creed: Odyssey

RePack

NEED FOR SPEED™ PAYBACK

4 сезон

9 сезон

Бесстыжие 9 сезон

Все сериалы

все сериалы на PB.wtf

RePack

FAR CRY 5
  

Прах Анджелы / Angela's Ashes (Алан Паркер) [1999, драма, BDRip 1080p by msltel] MVO, AVO pb.wtf

Прах Анджелы через торрент pb.wtf

Размер: 19.54 GB | Добавлен: 3 года 6 мес. назад | Торрент скачан:14 раз
Скачать  

31-03-2017 06:38 Прах Анджелы Скачать торрент  

Название: Прах Анджелы
Оригинальное название: Angela's Ashes
Год выпуска: 1999
Страна: США, Ирландия
Жанр: драма
Продолжительность: 02:29:02
Перевод: профессиональный многоголосый, авторский

Режиссёр: Алан Паркер

В ролях: Роберт Карлайл, Эмили Уотсон, Ианна Маклайам, Иэммон Оуэнс, Джерард Максорли, Брин Джо, Оуэнс Киран, Легг Майкл, Мастерсон Ронни, Маклин Полина, Карни Лиам, Беннетт Эндрю, Мюррей - Коркоран Шейн, Девон Мюррей, Хэлпин Питер, Кернс Шон, Дохерти Лес, О`Риган Марк, Диди Мойра, Керри Кондон, Клиффорд Брайан, Нортон Хелен, Моррисси Брендан, О`Нилл Энн

Описание: В 1935 году многочисленное семейство Маккуртов, не найдя счастья в Америке, возвращается в Ирландию, где их тоже никто не ждёт. Поселившись в тесной, сырой квартирке, они пытаются выжить. Анджела, на чьих плечах все домашние хлопоты, выбивается из сил, постепенно теряя веру в мужа. Всевышний словно забыл о них. И 6-летний Фрэнки на первом причастии вынужден признаться, что грешен. С этой ношей он и вступает во взрослую жизнь. Он ещё не знает, что очень скоро взвалит бремя семейных забот на себя. А пока у него есть еще немного времени на учёбу, шалости и кино. И зыбкая надежда увидеть статую Свободы снова... Фильм снят по мотивам мемуаров Фрэнка МакКорта «Прах Анджелы» (Angela’s Ashes, 1996).



Качество: BDRip 1080p
Формат: MKV
Видео: MPEG-4 AVC, 15.7 MKбит/с, 1920x1040, 23,976 кадра/с
Аудио 1: русский, AC3, 384 kbps, 5 ch, 48 kHz [профессиональный многоголосый]
Аудио 2: русский, DTS, 1509 kbps, 6 ch, 48 kHz [авторский, Сергей Визгунов]
Аудио 3: английский, DTS, 1509 kbps, 6 ch, 48 kHz [оригинал]
Общее
Уникальный идентификатор : 226167687497283000910188465233343166354 (0xAA264FEB0DB84A97BB7BCAF5BE663792)
Полное имя : D:\Video\Прах Анджелы.1999.BDRip.1080p by msltel.mkv
Формат : Matroska
Версия формата : Version 4 / Version 2
Размер файла : 19,5 Гбайт
Продолжительность : 2 ч. 29 м.
Общий поток : 18,8 Мбит/сек
Название фильма : Rip by msltel
Дата кодирования : UTC 2017-03-31 04:36:56
Программа кодирования : mkvmerge v8.2.0 ('World of Adventure') 64bit
Библиотека кодирования : libebml v1.3.1 + libmatroska v1.4.2

Видео
Идентификатор : 1
Формат : AVC
Формат/Информация : Advanced Video Codec
Профиль формата : High@L4.1
Параметр CABAC формата : Да
Параметр ReFrames формата : 4 кадра
Идентификатор кодека : V_MPEG4/ISO/AVC
Продолжительность : 2 ч. 25 м.
Битрейт : 15,7 Мбит/сек
Ширина : 1920 пикселей
Высота : 1040 пикселей
Соотношение сторон : 1,85:1
Режим частоты кадров : Постоянный
Частота кадров : 23,976 (24000/1001) кадра/сек
Цветовое пространство : YUV
Субдискретизация насыщенности : 4:2:0
Битовая глубина : 8 бит
Тип развёртки : Прогрессивная
Бит/(Пиксели*Кадры) : 0.328
Размер потока : 16,0 Гбайт (82%)
Библиотека кодирования : x264 core 146 r2538 121396c
Настройки программы : cabac=1 / ref=4 / deblock=1:-3:-2 / analyse=0x3:0x113 / me=umh / subme=11 / psy=1 / psy_rd=1.00:0.15 / mixed_ref=1 / me_range=32 / chroma_me=1 / trellis=2 / 8x8dct=1 / cqm=0 / deadzone=21,11 / fast_pskip=0 / chroma_qp_offset=-3 / threads=6 / lookahead_threads=1 / sliced_threads=0 / nr=0 / decimate=1 / interlaced=0 / bluray_compat=0 / constrained_intra=0 / bframes=9 / b_pyramid=2 / b_adapt=2 / b_bias=0 / direct=1 / weightb=1 / open_gop=0 / weightp=2 / keyint=230 / keyint_min=23 / scenecut=40 / intra_refresh=0 / rc_lookahead=40 / rc=crf / mbtree=0 / crf=20.0 / qcomp=0.60 / qpmin=0 / qpmax=69 / qpstep=4 / vbv_maxrate=62500 / vbv_bufsize=78125 / crf_max=0.0 / nal_hrd=none / filler=0 / ip_ratio=1.40 / pb_ratio=1.30 / aq=1:1.00
Язык : English
Default : Да
Forced : Нет

Аудио #1
Идентификатор : 2
Формат : AC-3
Формат/Информация : Audio Coding 3
Параметр Endianness формата : Big
Идентификатор кодека : A_AC3
Продолжительность : 2 ч. 29 м.
Вид битрейта : Постоянный
Битрейт : 384 Кбит/сек
Каналы : 5 каналов
Расположение каналов : Front: L C R, Side: L R
Частота : 48,0 КГц
Частота кадров : 31,250 кадров/сек (1536 spf)
Битовая глубина : 16 бит
Метод сжатия : С потерями
Размер потока : 409 Мбайт (2%)
Заголовок : MVO
Язык : Russian
ServiceKind/String : Complete Main
Default : Да
Forced : Нет

Аудио #2
Идентификатор : 3
Формат : DTS
Формат/Информация : Digital Theater Systems
Режим : 16
Параметр Endianness формата : Big
Идентификатор кодека : A_DTS
Продолжительность : 2 ч. 25 м.
Вид битрейта : Постоянный
Битрейт : 1509 Кбит/сек
Каналы : 6 каналов
Расположение каналов : Front: L C R, Side: L R, LFE
Частота : 48,0 КГц
Частота кадров : 93,750 кадра/сек (512 spf)
Битовая глубина : 16 бит
Метод сжатия : С потерями
Размер потока : 1,54 Гбайт (8%)
Заголовок : AVO (Сергей Визгунов)
Язык : Russian
Default : Нет
Forced : Нет

Аудио #3
Идентификатор : 4
Формат : DTS
Формат/Информация : Digital Theater Systems
Режим : 16
Параметр Endianness формата : Big
Идентификатор кодека : A_DTS
Продолжительность : 2 ч. 29 м.
Вид битрейта : Постоянный
Битрейт : 1509 Кбит/сек
Каналы : 6 каналов
Расположение каналов : Front: L C R, Side: L R, LFE
Частота : 48,0 КГц
Частота кадров : 93,750 кадра/сек (512 spf)
Битовая глубина : 16 бит
Метод сжатия : С потерями
Размер потока : 1,57 Гбайт (8%)
Заголовок : original
Язык : English
Default : Нет
Forced : Нет
pb.wtf



Скачать Прах Анджелы через торрент http://hostpic.gq/img/2017-03/30/ctqy0el7c7rvbdvqh3a64sz3u.jpg Скачать фильм Прах Анджелы через торрент бесплантно в хорошем качестве Описание: В 1935 году многочисленное семейство Маккуртов, не найдя счастья в Америке, возвращается в Ирландию, где их тоже никто не ждёт. ... 3.5 10 2
Info! Золотая раздача, скачанное не засчитывается.
Торрент: Зарегистрирован [2017-03-31 06:38] · скачан: 14 раз
Статус: √ проверено
Размер: 19.54 GB
Как cкачать? Как скачать Прах Анджелы через торрент | qTorrent

28-11-2019 20:33  

Отключить всю рекламу на сайте

    Дорогой пользователь! Огромная просьба, поблагодарите релизера, оцените раздачу и оставьте свои комментарий, если Вы скачали Прах Анджелы через торрент бесплатно! Внесите свою лепту в развитие PiratBit!
    Комментировать посты могут только пользователи прошедшие не сложную регистрацию
    Показать сообщения:    

    Прах Анджелы через торрент
    Скачать бесплатно Прах Анджелы
    Прах Анджелы скачать торрент
    Прах Анджелы смотреть онлайн
    Cкачать фильм Прах Анджелы бесплатно
    Прах Анджелы скачать торрент в хорошем качестве
    Прах Анджелы смотреть онлайн бесплатно в хорошем качестве


    Вы не можете начинать темы
    Вы не можете отвечать на сообщения
    Вы не можете редактировать свои сообщения
    Вы не можете удалять свои сообщения
    Вы не можете голосовать в опросах
    Вы не можете прикреплять файлы к сообщениям
    Вы можете скачивать файлы