Ссылка на приватное зеркало всего за 1$. Внимание количество ограничено!!!

iTunes

1+1

iTunes

мы

WEB-DL

1

iTunes

Чернобыль

iTunes

Ральф против интернета

Лицензия

ПШазам

Лицензия

Оно 2

Лицензия

30
pack

Вам бонус

ВАЖНО

!!Акция!!

Alien_RageХит недели

RePack

Resident Evil 21

ИГРА 18+

pack

RePack

jed

!!Акция!!

Alien_Rage

RePack

fifa19

RePack

Assassins Creed: Odyssey

RePack

NEED FOR SPEED™ PAYBACK

3 сезон

9 сезон

Бесстыжие 9 сезон

Все сериалы

все сериалы на PB.wtf

RePack

FAR CRY 5
Ребята, катастрофически не хватает 1900р. для оплаты серверов за Октябрь (всвязи с блокировками трафик упал в 3 раза), 1-2р., выручайте.
  

Битва за Москву (Юрий Озеров) [1985, СССР, Чехословакия, ГДР, Вьетнам, драма, военный, DVDRip от AVP Studio] pb.wtf

Битва за Москву через торрент pb.wtf

Размер: 2.91 GB | Добавлен: 2 года 8 мес. назад | Торрент скачан:25 раз
Скачать  

31-03-2017 07:16 Битва за Москву Скачать торрент  

Битва за Москву
Страна: СССР, Чехословакия, ГДР, Вьетнам
Производство: Мосфильм, Баррандов, ДЕФА

Жанр: драма, военный
Год выпуска: 1985
Продолжительность: 05:36:38 (02:46:02 + 02:50:36)

Перевод: Не требуется
Cубтитры: нет
Оригинальная аудиодорожка: русский

Режиссер: Юрий Озеров

В ролях:
Михаил Ульянов, Яков Трипольский, Александр Голобородько, Виталий Розстальный, Николай Засухин, Вячеслав Езепов, Владимир Трошин, Анатолий Никитин, Степан Микоян, Бруно Фрейндлих, Юрий Яковлев, Юозас Будрайтис, Александр Филиппенко, Николай Волков (младший), Леонид Кулагин, Валерий Юрченко, Ромуалдс Анцанс, Эммануил Виторган, Александр Мартынов, Владимир Кузнецов (VI), Ирина Шмелёва, Владимир Широков, Константин Степанов, Юрий Кузьменко, Ахим Петри, Эрнст Хайзе, Хельмут Хельсторф, Герд Михаэль Хеннеберг, Иоахим Томашевски, Эрик Фельдре, Экхард Беккер, Микк Микивер, Геннадий Сайфулин, Лев Прыгунов, Константин Степанков, Александр Воеводин, Николай Иванов, Николай Крючков, Ростислав Янковский, Леонид Евтифьев, Иржи Голый, Т. Голадзе...
Об актёрах подробней

Описание:
Картина состоит из двух частей: "Агрессия" и "Тайфун". Премьера в Москве - январь 1986 г.
Широкоформатный фильм, созданный на основе документальных материалов, с хроникальной точностью воспроизводит некоторые крупные сражения Великой Отечественной Войны - первое героическое сопротивление Красной армии в Брестской крепости и первое крупное поражение Гитлера - разгром фашистских войск под Москвой.

Источник: 2xDVD9 (Custom)
Качество видео: DVDRip
Формат видео: AVI

Видео: 704x304 (2,35:1), 25 fps, XviD ~ 1036 kbps avg, 0.194 bit/pixel
Аудио: 48 kHz, Dolby Digital AC3 2.0, 192 kbps

Раздача от:
Общее
Полное имя : Bitva.za.Moskvu.1985.DVDRip_[New-team]_by_AVP_Studio\Часть 1.avi
Формат : AVI
Формат/Информация : Audio Video Interleave
Размер файла : 1,43 Гбайт
Продолжительность : 2 ч. 46 м.
Общий поток : 1237 Кбит/сек
Программа кодирования : VirtualDubMod 1.5.10.3 | www.virtualdub-fr.org || (build 2550/release)
Библиотека кодирования : VirtualDubMod build 2550/release

Видео
Идентификатор : 0
Формат : MPEG-4 Visual
Профиль формата : Advanced Simple@L5
Параметр BVOP формата : 1
Параметр QPel формата : Нет
Параметр GMC формата : Без точки перехода
Параметр матрицы формата : Выборочная
Идентификатор кодека : XVID
Идентификатор кодека/Подсказка : XviD
Продолжительность : 2 ч. 46 м.
Битрейт : 1036 Кбит/сек
Ширина : 704 пикселя
Высота : 304 пикселя
Соотношение сторон : 2,35:1
Частота кадров : 25,000 кадров/сек
Цветовое пространство : YUV
Субдискретизация насыщенности : 4:2:0
Битовая глубина : 8 бит
Тип развёртки : Прогрессивная
Метод сжатия : С потерями
Бит/(Пиксели*Кадры) : 0.194
Размер потока : 1,20 Гбайт (84%)
Библиотека кодирования : XviD 73

Аудио
Идентификатор : 1
Формат : AC-3
Формат/Информация : Audio Coding 3
Параметр Endianness формата : Big
Идентификатор кодека : 2000
Продолжительность : 2 ч. 45 м.
Вид битрейта : Постоянный
Битрейт : 192 Кбит/сек
Каналы : 2 канала
Расположение каналов : Front: L R
Частота : 48,0 КГц
Частота кадров : 31,250 кадров/сек (1536 spf)
Битовая глубина : 16 бит
Метод сжатия : С потерями
Размер потока : 228 Мбайт (15%)
Выравнивание : Разделение по промежуткам
Продолжительность промежутка : 40 мс. (1,00 видеокадр)
Время предзагрузки промежутка : 500 мс
pb.wtf



Скачать Битва за Москву через торрент http://s42.radikal.ru/i096/1703/03/3c7d63e7eefe.png Скачать фильм Битва за Москву через торрент бесплантно в хорошем качестве Описание:Картина состоит из двух частей: "Агрессия" и "Тайфун". Премьера в Москве - январь 1986 г.Широкоформатный фильм, созданный на ... 10 10 4
Info! Золотая раздача, скачанное не засчитывается.
Торрент: Зарегистрирован [2017-03-31 07:16] · скачан: 25 раз
Статус: √ проверено
Размер: 2.91 GB
Как cкачать? Как скачать Битва за Москву через торрент | qTorrent

% Раздел Тема Автор DL S | L
Кино СССР [ 3.71 GB ] Битва за Москву [1985 СССР Чехословакия ГДР Вьетнам военный DVDRip-AVC от AVP Studio] AVP Studio Скачать
1 | 0
Кино СССР [ 2.18 GB ] Битва за Москву [1985 СССР Чехословакия ГДР Вьетнам военный DVDRip от AVP Studio] AVP Studio Скачать
1 | 0
Кино СССР [ 4.37 GB ] Битва за Москву / Серии 1-2 из 2 [1985 военный DVDRip] -Lexx- Скачать
1 | 0
Документальные фильмы и телепередачи [ 119 MB ] О битве за Москву [2012 документальный WEBRip Оригинал] metanoia Скачать
1 | 0
Наши фильмы (DVD фильмы) [ 16.59 GB ] Битва за Москву [1985 военный ... 4*DVD5] amv77 Скачать
1 | 0

28-11-2019 20:33  

Отключить всю рекламу на сайте

    Дорогой пользователь! Огромная просьба, поблагодарите релизера, оцените раздачу и оставьте свои комментарий, если Вы скачали Битва за Москву через торрент бесплатно! Внесите свою лепту в развитие PiratBit!
    Комментировать посты могут только пользователи прошедшие не сложную регистрацию
    Показать сообщения:    

    Битва за Москву через торрент
    Скачать бесплатно Битва за Москву
    Битва за Москву скачать торрент
    Битва за Москву смотреть онлайн
    Cкачать фильм Битва за Москву бесплатно
    Битва за Москву скачать торрент в хорошем качестве
    Битва за Москву смотреть онлайн бесплатно в хорошем качестве


    Вы не можете начинать темы
    Вы не можете отвечать на сообщения
    Вы не можете редактировать свои сообщения
    Вы не можете удалять свои сообщения
    Вы не можете голосовать в опросах
    Вы не можете прикреплять файлы к сообщениям
    Вы можете скачивать файлы