новый адрес
Ссылка на приватное зеркало всего за 1$. Внимание количество ограничено!!!

iTunes

1+1

iTunes

мы

iTunes

1

iTunes

Чернобыль

iTunes

Ральф против интернета

Лицензия

ПШазам

Лицензия

Оно 2

Лицензия

30
pack

Вам бонус

ВАЖНО

!!Акция!!

Alien_RageХит недели

RePack

Resident Evil 21

ИГРА 18+

pack

RePack

jed

!!Акция!!

Alien_Rage

RePack

fifa19

RePack

Assassins Creed: Odyssey

RePack

NEED FOR SPEED™ PAYBACK

3 сезон

9 сезон

Бесстыжие 9 сезон

Все сериалы

все сериалы на PB.wtf

RePack

FAR CRY 5
Ребята, катастрофически не хватает 1900р. для оплаты серверов за Октябрь (всвязи с блокировками трафик упал в 3 раза), 1-2р., выручайте.
  

Битва за Москву (Юрий Озеров) [1985, СССР, Чехословакия, ГДР, Вьетнам, драма, военный, DVDRip-AVC от AVP Studio] pb.wtf

Битва за Москву через торрент pb.wtf

Размер: 3.71 GB | Добавлен: 2 года 7 мес. назад | Торрент скачан:130 раз
Скачать  

31-03-2017 07:18 Битва за Москву Скачать торрент  

Битва за Москву
Страна: СССР, Чехословакия, ГДР, Вьетнам
Производство: Мосфильм, Баррандов, ДЕФА

Жанр: драма, военный
Год выпуска: 1985
Продолжительность: 05:36:38 (02:46:02 + 02:50:36)

Перевод: Не требуется
Cубтитры: нет
Оригинальная аудиодорожка: русский

Режиссер: Юрий Озеров

В ролях:
Михаил Ульянов, Яков Трипольский, Александр Голобородько, Виталий Розстальный, Николай Засухин, Вячеслав Езепов, Владимир Трошин, Анатолий Никитин, Степан Микоян, Бруно Фрейндлих, Юрий Яковлев, Юозас Будрайтис, Александр Филиппенко, Николай Волков (младший), Леонид Кулагин, Валерий Юрченко, Ромуалдс Анцанс, Эммануил Виторган, Александр Мартынов, Владимир Кузнецов (VI), Ирина Шмелёва, Владимир Широков, Константин Степанов, Юрий Кузьменко, Ахим Петри, Эрнст Хайзе, Хельмут Хельсторф, Герд Михаэль Хеннеберг, Иоахим Томашевски, Эрик Фельдре, Экхард Беккер, Микк Микивер, Геннадий Сайфулин, Лев Прыгунов, Константин Степанков, Александр Воеводин, Николай Иванов, Николай Крючков, Ростислав Янковский, Леонид Евтифьев, Иржи Голый, Т. Голадзе...
Об актёрах подробней

Описание:
Картина состоит из двух частей: "Агрессия" и "Тайфун". Премьера в Москве - январь 1986 г.
Широкоформатный фильм, созданный на основе документальных материалов, с хроникальной точностью воспроизводит некоторые крупные сражения Великой Отечественной Войны - первое героическое сопротивление Красной армии в Брестской крепости и первое крупное поражение Гитлера - разгром фашистских войск под Москвой.

Источник: 2xDVD9 (Custom)
Качество видео: DVDRip-AVC
Формат видео: MKV

Видео: 712->1024x436 (2,35:1), 25 fps, H264 ~ 1386 kbps avg, 0.179 bit/pixel
Аудио: 48 kHz, Dolby Digital AC3 2.0, 192 kbps

Раздача от:
Общее
Полное имя : Bitva.za.Moskvu.1985.DVDRip-AVC_[New-team]_by_AVP_Studio\Часть 1.mkv
Формат : Matroska
Версия формата : Version 2
Размер файла : 1,83 Гбайт
Продолжительность : 2 ч. 46 м.
Общий поток : 1579 Кбит/сек
Дата кодирования : UTC 2017-03-31 03:10:23
Программа кодирования : mkvmerge v6.1.0 ('Old Devil') built on Mar 4 2013 09:10:42
Библиотека кодирования : libebml v1.3.0 + libmatroska v1.4.0

Видео
Идентификатор : 1
Формат : AVC
Формат/Информация : Advanced Video Codec
Профиль формата : High@L4.1
Параметр CABAC формата : Да
Параметр ReFrames формата : 10 кадров
Идентификатор кодека : V_MPEG4/ISO/AVC
Продолжительность : 2 ч. 46 м.
Битрейт : 1386 Кбит/сек
Ширина : 712 пикселей
Высота : 436 пикселей
Соотношение сторон : 2,35:1
Режим частоты кадров : Постоянный
Частота кадров : 25,000 кадров/сек
Цветовое пространство : YUV
Субдискретизация насыщенности : 4:2:0
Битовая глубина : 8 бит
Тип развёртки : Прогрессивная
Бит/(Пиксели*Кадры) : 0.179
Размер потока : 1,57 Гбайт (86%)
Библиотека кодирования : x264 core 148 r2597 e86f3a1
Настройки программы : cabac=1 / ref=10 / deblock=1:-2:-1 / analyse=0x3:0x113 / me=umh / subme=10 / psy=1 / psy_rd=1.00:0.00 / mixed_ref=1 / me_range=32 / chroma_me=1 / trellis=2 / 8x8dct=1 / cqm=0 / deadzone=21,11 / fast_pskip=1 / chroma_qp_offset=-2 / threads=6 / lookahead_threads=1 / sliced_threads=0 / nr=0 / decimate=0 / interlaced=0 / bluray_compat=0 / constrained_intra=0 / bframes=8 / b_pyramid=2 / b_adapt=2 / b_bias=0 / direct=3 / weightb=1 / open_gop=0 / weightp=2 / keyint=250 / keyint_min=25 / scenecut=40 / intra_refresh=0 / rc=2pass / mbtree=0 / bitrate=1386 / ratetol=1.0 / qcomp=0.60 / qpmin=0 / qpmax=69 / qpstep=4 / cplxblur=20.0 / qblur=0.5 / ip_ratio=1.40 / pb_ratio=1.30 / aq=1:1.00
Default : Да
Forced : Нет

Аудио
Идентификатор : 2
Формат : AC-3
Формат/Информация : Audio Coding 3
Параметр Endianness формата : Big
Идентификатор кодека : A_AC3
Продолжительность : 2 ч. 46 м.
Вид битрейта : Постоянный
Битрейт : 192 Кбит/сек
Каналы : 2 канала
Расположение каналов : Front: L R
Частота : 48,0 КГц
Частота кадров : 31,250 кадров/сек (1536 spf)
Битовая глубина : 16 бит
Метод сжатия : С потерями
Размер потока : 228 Мбайт (12%)
Язык : Russian
Default : Да
Forced : Нет
pb.wtf



Скачать Битва за Москву через торрент http://s42.radikal.ru/i096/1703/03/3c7d63e7eefe.png Скачать фильм Битва за Москву через торрент бесплантно в хорошем качестве Описание:Картина состоит из двух частей: "Агрессия" и "Тайфун". Премьера в Москве - январь 1986 г.Широкоформатный фильм, созданный на ... 10 10 7
Info! Золотая раздача, скачанное не засчитывается.
Торрент: Зарегистрирован [2017-03-31 07:18] · скачан: 130 раз
Статус: √ проверено
Размер: 3.71 GB
Как cкачать? Как скачать Битва за Москву через торрент | qTorrent

% Раздел Тема Автор DL S | L
Кино СССР [ 2.18 GB ] Битва за Москву [1985 СССР Чехословакия ГДР Вьетнам военный DVDRip от AVP Studio] AVP Studio Скачать
1 | 0
Кино СССР [ 2.91 GB ] Битва за Москву [1985 СССР Чехословакия ГДР Вьетнам военный DVDRip от AVP Studio] AVP Studio Скачать
1 | 0
Кино СССР [ 4.37 GB ] Битва за Москву / Серии 1-2 из 2 [1985 военный DVDRip] -Lexx- Скачать
1 | 0
Документальные фильмы и телепередачи [ 119 MB ] О битве за Москву [2012 документальный WEBRip Оригинал] metanoia Скачать
1 | 0
Наши фильмы (DVD фильмы) [ 16.59 GB ] Битва за Москву [1985 военный ... 4*DVD5] amv77 Скачать
1 | 0
    Дорогой пользователь! Огромная просьба, поблагодарите релизера, оцените раздачу и оставьте свои комментарий, если Вы скачали Битва за Москву через торрент бесплатно! Внесите свою лепту в развитие PiratBit!
    Комментировать посты могут только пользователи прошедшие не сложную регистрацию
    Показать сообщения:    

    Битва за Москву через торрент
    Скачать бесплатно Битва за Москву
    Битва за Москву скачать торрент
    Битва за Москву смотреть онлайн
    Cкачать фильм Битва за Москву бесплатно
    Битва за Москву скачать торрент в хорошем качестве
    Битва за Москву смотреть онлайн бесплатно в хорошем качестве


    Вы не можете начинать темы
    Вы не можете отвечать на сообщения
    Вы не можете редактировать свои сообщения
    Вы не можете удалять свои сообщения
    Вы не можете голосовать в опросах
    Вы не можете прикреплять файлы к сообщениям
    Вы можете скачивать файлы