Всегда рабочее зеркало без VPN и Proxy просто перед .vidak.icu напиши любое слово или цифру, Пример http://u1oh.vidak.icu

iTunes

2 сезон

1 сезон

1

1 сезон

iTunes

2 сезон

13

1 сезон

Deluxe

pack

Рекомендуем

Пиратка

30

ВАЖНО

RePack

MK11

RePack

jed

RePack

fifa19

RePack

RDR2

RePack

NEED FOR SPEED™ PAYBACK

Кинопоиск HD

6 сезон

 Острые козырьки 6 сезон

Все сериалы

все сериалы на PB.wtf

RePack

FAR CRY 5

Anonymous, нам критически не хватает 5601 руб. на оплату серверов и переферии за Апрель, помоги нам пожалуйста, вся надежда только на тебя. В благодарность мы отключим тебе всю рекламу на сайте!

×
  
Magnet ссылка

Хороший, плохой, злой / The Good, The Bad and The Ugly / Il buono, il brutto, il cattivo (Серджио Леоне) [1966, вестерн, боевик, приключения, BDRip 720p от еnvy / NNNB] [Mondo HE] / MVO, DVO, AVO pb.wtf

Хороший, плохой, злой через торрент pb.wtf

Раздают: 7 [ 106 KB/s ]
Размер: 13.24 GB | Добавлен: 5 лет 1 мес. назад | Торрент скачан:224 раза
Смотреть онлайн Хороший, плохой, злой | Скачать    Ребята, помогите собрать деньги на оплату серверов!!!

31-03-2017 09:45 Хороший, плохой, злой Скачать торрент  

Информация о фильме

Русское название: Хороший, плохой, злой
Оригинальное название: The Good, The Bad and The Ugly / Il buono, il brutto, il cattivo
Год выхода: 1966
Жанр: вестерн, боевик, приключения
Режиссер: Серджио Леоне
Выпущено: Италия, Испания, Германия (ФРГ), США
Продолжительность: 02:54:23
Перевод: Профессиональный (многоголосый закадровый), Профессиональный (двухголосый закадровый), Авторский одноголосый
В ролях: Клинт Иствуд, Эли Уоллах, Ли Ван Клиф, Марио Брега, Рада Рассимов, Альдо Джуффре, Луиджи Пистилли, Антонио Касас, Антонио Молино Рохо, Антонио Казале
Описание:

В разгар гражданской войны таинственный стрелок скитается по просторам Дикого Запада. У него нет ни дома, ни друзей, ни компаньонов, пока он не встречает двоих незнакомцев, таких же безжалостных и циничных.
По воле судьбы трое мужчин вынуждены объединить свои усилия в поисках украденного золота. Но совместная работа — не самое подходящее занятие для таких отъявленных бандитов, как они. Компаньоны вскоре понимают, что в их дерзком и опасном путешествии по разоренной войной стране самое важное — никому не доверять и держать пистолет наготове, если хочешь остаться в живых.


Файл

Качество: BDRip 720p (исходник Blu-Ray Remux 1080p [Mondo HE])
Формат: MKV
Видео: 1280x542, 8883 Кбит/сек, 23,976 кадр/сек, AVC, x264, High@L4.1, 2.35:1, 0.534 Бит/[Пиксели*Кадры]
Аудио 1: AC-3, 448 Кбит/сек, 6 канала(ов), 48,0 КГц - Многоголосый закадровый, R5, SomeWax / Русский
Аудио 2: AC-3, 448 Кбит/сек, 6 канала(ов), 48,0 КГц - Двухголосый закадровый, П. Гланц и И. Королева / Русский
Аудио 3: AC-3, 192 Кбит/сек, 2 канала(ов), 48,0 КГц - Многоголосый закадровый, 5й канал, Петербург / Русский
Аудио 4: AC-3, 448 Кбит/сек, 6 канала(ов), 48,0 КГц - Одноголосый закадровый, В.Горчаков / Русский
Аудио 5: AC-3, 448 Кбит/сек, 6 канала(ов), 48,0 КГц - Оригинал / Английский
Субтитры: Русские | Полные, Английские | Полные
Форсированные субтитры: Нет
Чаптеры (Главы): Есть






Автор Рипа: Группа:


Format : Matroska
Format version : Version 2
File size : 13.2 GiB
Duration : 2 h 54 min
Overall bit rate : 10.9 Mb/s
Movie name : The Good, The Bad and The Ugly.(1966).BDRip.720p.[envy]
Encoded date : UTC 2017-03-31 08:49:36
Writing application : mkvmerge v5.8.0 ('No Sleep / Pillow') built on Sep 2 2012 15:37:04
Writing library : libebml v1.2.3 + libmatroska v1.3.0

Video
ID : 1
Format : AVC
Format/Info : Advanced Video Codec
Format profile : High@L4.1
Format settings, CABAC : Yes
Format settings, ReFrames : 10 frames
Muxing mode : Header stripping
Codec ID : V_MPEG4/ISO/AVC
Duration : 2 h 54 min
Bit rate : 8 883 kb/s
Width : 1 280 pixels
Height : 542 pixels
Display aspect ratio : 2.35:1
Frame rate mode : Constant
Frame rate : 23.976 (24000/1001) FPS
Color space : YUV
Chroma subsampling : 4:2:0
Bit depth : 8 bits
Scan type : Progressive
Bits/(Pixel*Frame) : 0.534
Stream size : 10.6 GiB (80%)
Title : The Good, The Bad and The Ugly.(1966).BDRip.720p.[envy]
Writing library : x264 core 148 r2744 b97ae06
Encoding settings : cabac=1 / ref=10 / deblock=1:-3:-3 / analyse=0x3:0x133 / me=umh / subme=11 / psy=1 / psy_rd=1.00:0.00 / mixed_ref=1 / me_range=32 / chroma_me=1 / trellis=2 / 8x8dct=1 / cqm=0 / deadzone=21,11 / fast_pskip=0 / chroma_qp_offset=-2 / threads=12 / lookahead_threads=1 / sliced_threads=0 / nr=0 / decimate=1 / interlaced=0 / bluray_compat=0 / constrained_intra=0 / bframes=5 / b_pyramid=2 / b_adapt=2 / b_bias=0 / direct=3 / weightb=1 / open_gop=0 / weightp=2 / keyint=240 / keyint_min=23 / scenecut=40 / intra_refresh=0 / rc=2pass / mbtree=0 / bitrate=8883 / ratetol=2.0 / qcomp=0.60 / qpmin=0 / qpmax=69 / qpstep=4 / cplxblur=20.0 / qblur=0.5 / ip_ratio=1.40 / pb_ratio=1.30 / aq=1:0.65
Language : English
Default : Yes
Forced : No

Audio #1
ID : 2
Format : AC-3
Format/Info : Audio Coding 3
Format settings, Endianness : Big
Muxing mode : Header stripping
Codec ID : A_AC3
Duration : 2 h 54 min
Bit rate mode : Constant
Bit rate : 448 kb/s
Channel(s) : 6 channels
Channel positions : Front: L C R, Side: L R, LFE
Sampling rate : 48.0 kHz
Frame rate : 31.250 FPS (1536 spf)
Bit depth : 16 bits
Compression mode : Lossy
Stream size : 559 MiB (4%)
Title : MVO R5, SomeWax
Language : Russian
Service kind : Complete Main
Default : Yes
Forced : No

Audio #2
ID : 3
Format : AC-3
Format/Info : Audio Coding 3
Format settings, Endianness : Big
Muxing mode : Header stripping
Codec ID : A_AC3
Duration : 2 h 54 min
Bit rate mode : Constant
Bit rate : 448 kb/s
Channel(s) : 6 channels
Channel positions : Front: L C R, Side: L R, LFE
Sampling rate : 48.0 kHz
Frame rate : 31.250 FPS (1536 spf)
Bit depth : 16 bits
Compression mode : Lossy
Stream size : 559 MiB (4%)
Title : DVO П.Гланц и И.Королева
Language : Russian
Service kind : Complete Main
Default : No
Forced : No

Audio #3
ID : 4
Format : AC-3
Format/Info : Audio Coding 3
Mode : Dolby Digital
Format settings, Endianness : Big
Muxing mode : Header stripping
Codec ID : A_AC3
Duration : 2 h 54 min
Bit rate mode : Constant
Bit rate : 192 kb/s
Channel(s) : 2 channels
Channel positions : Front: L R
Sampling rate : 48.0 kHz
Frame rate : 31.250 FPS (1536 spf)
Bit depth : 16 bits
Compression mode : Lossy
Stream size : 239 MiB (2%)
Title : MVO 5й канал, Петербург
Language : Portuguese
Service kind : Complete Main
Default : No
Forced : No

Audio #4
ID : 5
Format : AC-3
Format/Info : Audio Coding 3
Format settings, Endianness : Big
Muxing mode : Header stripping
Codec ID : A_AC3
Duration : 2 h 54 min
Bit rate mode : Constant
Bit rate : 448 kb/s
Channel(s) : 6 channels
Channel positions : Front: L C R, Side: L R, LFE
Sampling rate : 48.0 kHz
Frame rate : 31.250 FPS (1536 spf)
Bit depth : 16 bits
Compression mode : Lossy
Stream size : 559 MiB (4%)
Title : AVO В.Горчаков
Language : Russian
Service kind : Complete Main
Default : No
Forced : No

Audio #5
ID : 6
Format : AC-3
Format/Info : Audio Coding 3
Format settings, Endianness : Big
Muxing mode : Header stripping
Codec ID : A_AC3
Duration : 2 h 54 min
Bit rate mode : Constant
Bit rate : 448 kb/s
Channel(s) : 6 channels
Channel positions : Front: L C R, Side: L R, LFE
Sampling rate : 48.0 kHz
Frame rate : 31.250 FPS (1536 spf)
Bit depth : 16 bits
Compression mode : Lossy
Stream size : 559 MiB (4%)
Title : Eng
Language : English
Service kind : Complete Main
Default : No
Forced : No

Text #1
ID : 7
Format : UTF-8
Codec ID : S_TEXT/UTF8
Codec ID/Info : UTF-8 Plain Text
Title : Rus full
Language : Russian
Default : No
Forced : No

Text #2
ID : 8
Format : UTF-8
Codec ID : S_TEXT/UTF8
Codec ID/Info : UTF-8 Plain Text
Title : Eng full
Language : English
Default : No
Forced : No

Menu
00:00:00.000 : :Chapter 01
00:17:31.759 : :Chapter 02
00:29:48.453 : :Chapter 03
00:32:11.387 : :Chapter 04
00:38:22.258 : :Chapter 05
00:46:26.366 : :Chapter 06
00:50:43.790 : :Chapter 07
01:02:47.388 : :Chapter 08
01:10:22.218 : :Chapter 09
01:19:21.006 : :Chapter 10
01:25:50.019 : :Chapter 11
01:28:09.492 : :Chapter 12
01:33:52.752 : :Chapter 13
01:45:31.533 : :Chapter 14
01:53:35.809 : :Chapter 15
02:07:34.271 : :Chapter 16
02:20:30.588 : :Chapter 17
02:26:58.893 : :Chapter 18
02:32:00.945 : :Chapter 19
02:37:23.434 : :Chapter 20
02:45:06.897 : :Chapter 21

pb.wtf



Скачать Хороший, плохой, злой через торрент http://img11.lostpic.net/2017/03/31/d198629b342da046377b408446aeb329.png Скачать, смотреть онлайн Хороший, плохой, злой бесплантно в хорошем качестве Описание:В разгар гражданской войны таинственный стрелок скитается по просторам Дикого Запада. У него нет ни дома, ни друзей, ни ... 8.6 10 5
Info! Золотая раздача, скачанное не засчитывается.
Торрент: Зарегистрирован [2017-03-31 09:45] · скачан: 224 раз
Статус: √ проверено
Размер: 13.24 GB
Как cкачать? Как скачать Хороший, плохой, злой через торрент | UTorrent

28-11-2019 20:33  

Отключить всю рекламу на сайте

31-03-2017 12:38 Хороший, плохой, злой Скачать торрент  

Ох!!! Классика ) Спасибо, забираю )pb.wtf



07-12-2018 16:14 Хороший, плохой, злой Скачать торрент  

спасибо дорогой ...pb.wtf



    Дорогой пользователь! Огромная просьба, поблагодарите релизера, оцените раздачу и оставьте свои комментарий, если Вы скачали Хороший, плохой, злой через торрент бесплатно!
    Комментировать посты могут только пользователи прошедшие не сложную регистрацию
    Показать сообщения:    

    Хороший, плохой, злой через торрент
    Скачать бесплатно Хороший, плохой, злой
    Хороший, плохой, злой скачать торрент
    Хороший, плохой, злой смотреть онлайн
    Cкачать фильм Хороший, плохой, злой бесплатно
    Хороший, плохой, злой скачать торрент в хорошем качестве
    Хороший, плохой, злой смотреть онлайн бесплатно в хорошем качестве


    Вы не можете начинать темы
    Вы не можете отвечать на сообщения
    Вы не можете редактировать свои сообщения
    Вы не можете удалять свои сообщения
    Вы не можете голосовать в опросах
    Вы не можете прикреплять файлы к сообщениям
    Вы можете скачивать файлы