Всегда рабочее зеркало без VPN и Proxy просто перед .vidak.icu напиши любое слово или цифру, Пример http://tdb1.vidak.icu

MVO

2 сезон

1 сезон

1

1 сезон

iTunes

2 сезон

13

1 сезон

Deluxe

pack

Рекомендуем

Пиратка

30

ВАЖНО

RePack

MK11

RePack

jed

RePack

fifa19

RePack

RDR2

RePack

NEED FOR SPEED™ PAYBACK

Кинопоиск HD

6 сезон

 Острые козырьки 6 сезон

Все сериалы

все сериалы на PB.wtf

RePack

FAR CRY 5

Anonymous, нам критически не хватает 5601 руб. на оплату серверов и переферии за Апрель, помоги нам пожалуйста, вся надежда только на тебя. В благодарность мы отключим тебе всю рекламу на сайте!

×
  
Magnet ссылка

Новый Comedy Club (Комеди Клаб) (эфир от 31.03) [2017 г., Юмористическое шоу, SATRip] pb.wtf

Новый Comedy Club через торрент pb.wtf

Размер: 660 MB | Добавлен: 5 лет 1 мес. назад | Торрент скачан:476 раз
Смотреть онлайн Новый Comedy Club | Скачать    Ребята, помогите собрать деньги на оплату серверов!!!

31-03-2017 12:21 Новый Comedy Club Скачать торрент  

Новый Comedy Club (Комеди Клаб) (эфир от 31.03)
Год выпуска: 2017
Страна: Россия
Жанр: Юмористическое шоу
Продолжительность: 00:45:48
Перевод: Не требуется Русский
Субтитры: нет

В ролях: Comedy Club

Описание: Как всегда, Comedy Club собрал все самое смешное, чтобы оставаться самым крутым юмористическим шоу на телевидении. Только самые лучшие номера от резидентов "Сomedy Сlub". Выдержанный юмор, проверенный временем и многомиллионной телевизионной аудиторией. Павел Воля бросает пить, а Тимур Батрутдинов оказывает клиентам интимные услуги. Кроме того в выпуске - лучшие песни от участников грушинского бард-н-блюз фестиваля в Америке, экспериментальный юмор от Гарика Мартиросяна и многое другое. Вы помните, что теперь Новый Comedy Club – больше чем просто шоу на сцене? Камеры готовы? Музыканты готовы? Зрители готовы? Поехали!

Качество: SATRip
Формат: AVI
Видео кодек: XviD
Аудио кодек: MP3
Видео: XviD,720x400, 25.00 fps, 1800 kbps
Аудио#1: MP3,48000 Hz, 128 kbps, 2 Channel



General
Complete name : H:\релизы.торрентфайл\Последнее королевство (сезон 2) The Last Kingdom (2017) HDTVRip - LostFilm\KK.2017.03.31.SATRip.[www.riperam.org].avi
Format : AVI
Format/Info : Audio Video Interleave
File size : 660 MiB
Duration : 47mn 32s
Overall bit rate : 1 941 Kbps

Video
ID : 0
Format : MPEG-4 Visual
Format profile : Advanced Simple@L5
Format settings, BVOP : 2
Format settings, QPel : No
Format settings, GMC : No warppoints
Format settings, Matrix : Default (H.263)
Codec ID : XVID
Codec ID/Hint : XviD
Duration : 47mn 32s
Bit rate : 1 800 Kbps
Width : 720 pixels
Height : 400 pixels
Display aspect ratio : 16:9
Frame rate : 25.000 fps
Color space : YUV
Chroma subsampling : 4:2:0
Bit depth : 8 bits
Scan type : Progressive
Compression mode : Lossy
Bits/(Pixel*Frame) : 0.250
Stream size : 612 MiB (93%)
Writing library : XviD 1.2.1 (UTC 2008-12-04)

Audio
ID : 1
Format : MPEG Audio
Format version : Version 1
Format profile : Layer 3
Mode : Joint stereo
Mode extension : MS Stereo
Codec ID : 55
Codec ID/Hint : MP3
Duration : 47mn 32s
Bit rate mode : Constant
Bit rate : 128 Kbps
Channel(s) : 2 channels
Sampling rate : 48.0 KHz
Compression mode : Lossy
Stream size : 43.5 MiB (7%)
Alignment : Aligned on interleaves
Interleave, duration : 24 ms (0.60 video frame)
Writing library : LAME3.99r
Encoding settings : -m j -V 4 -q 9 -lowpass 17 -b 128

pb.wtf



Скачать Новый Comedy Club через торрент https://pic1.kartinco.top/images/11/rwaiw.jpg Скачать, смотреть онлайн Новый Comedy Club бесплантно в хорошем качестве Описание: Как всегда, Comedy Club собрал все самое смешное, чтобы оставаться самым крутым юмористическим шоу на телевидении. Только самые ... 9.3 10 12
Торрент: Зарегистрирован [2017-03-31 12:21] · скачан: 476 раз
Статус: √ проверено
Размер: 660 MB
Как cкачать? Как скачать Новый Comedy Club через торрент | UTorrent

% Раздел Тема Автор DL S | L
Comedy Club - Комеди Клаб new [ 534 MB ] Новый Comedy Club [2012 тв-шоу юмор SATRip] эфир от 23.03.12 shuller Скачать
1 | 0
Comedy Club - Комеди Клаб new [ 491 MB ] Новый Comedy Club [2012 тв-шоу юмор SATRip] эфир от 02.01.12 shuller Скачать
1 | 0
Comedy Club - Комеди Клаб new [ 485 MB ] Новый Comedy Club - The best of Гарик и Тимур [2011 тв-шоу юмор SATRip] эфир от 23.12.11 shuller Скачать
1 | 0
Comedy Club - Комеди Клаб new [ 560 MB ] Новый Comedy Club [2012 тв-шоу юмор SATRip] эфир от 14.09.12 shuller Скачать
1 | 0
Comedy Club - Комеди Клаб new [ 601 MB ] Новый Comedy Club [2013 Телепередача Юмор SATRip] эфир от 19.04.13 1mpulse2k20 Скачать
1 | 0
Comedy Club - Комеди Клаб new [ 546 MB ] Новый Comedy Club [2013 Телепередача Юмор SATRip] эфир от 26.04.13 1mpulse2k20 Скачать
1 | 0
Comedy Club - Комеди Клаб new [ 556 MB ] Новый Comedy Club [2013 Телепередача Юмор SATRip] эфир от 8.05.13 1mpulse2k20 Скачать
1 | 0

28-11-2019 20:33  

Отключить всю рекламу на сайте

    Дорогой пользователь! Огромная просьба, поблагодарите релизера, оцените раздачу и оставьте свои комментарий, если Вы скачали Новый Comedy Club через торрент бесплатно!
    Комментировать посты могут только пользователи прошедшие не сложную регистрацию
    Показать сообщения:    

    Новый Comedy Club через торрент
    Скачать бесплатно Новый Comedy Club
    Новый Comedy Club скачать торрент
    Новый Comedy Club смотреть онлайн
    Cкачать фильм Новый Comedy Club бесплатно
    Новый Comedy Club скачать торрент в хорошем качестве
    Новый Comedy Club смотреть онлайн бесплатно в хорошем качестве


    Вы не можете начинать темы
    Вы не можете отвечать на сообщения
    Вы не можете редактировать свои сообщения
    Вы не можете удалять свои сообщения
    Вы не можете голосовать в опросах
    Вы не можете прикреплять файлы к сообщениям
    Вы можете скачивать файлы