2 сезон

iTunes

MVO

1

2 сезон

iTunes

iTunes

1 сезон

RePack

30

Ultimate

ВАЖНО

ИГРА 18+

pack

RePack

MK11
pack

Легкие деньги

RePack

jed

RePack

fifa19

RePack

RDR2

RePack

NEED FOR SPEED™ PAYBACK

4 сезон

9 сезон

Бесстыжие 9 сезон

Все сериалы

все сериалы на PB.wtf

RePack

FAR CRY 5

Anonymous, доброй ночи, мы не успеваем собрать деньги на оплату серверов за декабрь и январь, помогите нам пожалуйста в это трудное время. В качестве благодарности мы отключим Вам всю рекламу на сайте (укажите свой ник в строку Ваше имя)!

×
  
Magnet ссылка

На дне мира / Bottom of the World (Ричард Сирс) [2017 г., триллер, драма, детектив, WEB-DLRip, Любительский (многоголосый)] [@MUZOBOZ@] pb.wtf

На дне мира через торрент pb.wtf

Размер: 1.37 GB | Добавлен: 3 года 9 мес. назад | Торрент скачан:532 раза
Скачать  

01-04-2017 06:17 На дне мира Скачать торрент  

На дне мира / Bottom of the World
Год выпуска: 2017
Страна: США, Канада
Жанр: триллер, драма, детектив
Продолжительность: 01:24:05
Перевод: Любительский (многоголосый) [@MUZOBOZ@]
Субтитры: нет

Режиссер: Ричард Сирс

rating

В ролях: Джена Мэлоун, Тед Левайн, Дуглас Смит, Тамара Дуарте, Келли Пендиграфт, Джон МакЛарен, Марк Сивертсен, Виктор Корнфут, Ральф Олдермен, Джонатан Дэвид Диксон

Описание: Двое молодых людей путешествуют по стране. Пытаясь найти место, где можно отдохнуть и расслабиться от долгого пути, они находят странный мотель. Не имея никаких альтернатив, приятели снимают в нём комнату. Какое-то время они не обращают внимания на странности, творящиеся там, но вскоре те становятся настолько явными, что не могут не бросаться в глаза. Сначала молодые люди замечают отсутствие в мотеле постояльцев. Потом начинают ощущать, что кто-то за ними следит. Решив покинуть это место, они отправляются в путь, но во время путешествия внезапно появляется незнакомец в маске. Очнувшись, один из главных героев фильма понимает, что всё это был лишь страшный сон. Внезапно в комнату входит незнакомец из сна. Через мгновение происходит ещё одно пробуждение. Происходящее начинает казаться иллюзией. Один сон сменяется другим, а чувство реальности теряется…

Доп. информация: Реклама есть.

Качество: WEB-DLRip
Формат: AVI
Видео кодек: XviD
Аудио кодек: AC3
Видео: XviD ,720x288 (2.500), 23.976 fps ~ 1870 Kbps
Аудио: AC3, 48 KHz .2 ch, ~ 448 Kb/s




General
Complete name : H:\релизы.торрентфайл\Bottom.of.the.World.2017.WEB-DLRip.avi
Format : AVI
Format/Info : Audio Video Interleave
File size : 1.37 GiB
Duration : 1h 24mn
Overall bit rate : 2 330 Kbps
Writing application : VirtualDubMod 1.5.10.2 (build 2540/release)
Writing library : VirtualDub build 35576/release

Video
ID : 0
Format : MPEG-4 Visual
Format profile : Advanced Simple@L5
Format settings, BVOP : 2
Format settings, QPel : No
Format settings, GMC : No warppoints
Format settings, Matrix : Custom
Codec ID : XVID
Codec ID/Hint : XviD
Duration : 1h 24mn
Bit rate : 1 873 Kbps
Width : 720 pixels
Height : 288 pixels
Display aspect ratio : 2.500
Frame rate : 23.976 fps
Color space : YUV
Chroma subsampling : 4:2:0
Bit depth : 8 bits
Scan type : Progressive
Compression mode : Lossy
Bits/(Pixel*Frame) : 0.377
Stream size : 1.10 GiB (80%)
Writing library : XviD 1.2.1 (UTC 2008-12-04)

Audio
ID : 1
Format : AC-3
Format/Info : Audio Coding 3
Mode extension : CM (complete main)
Format settings, Endianness : Big
Codec ID : 2000
Duration : 1h 24mn
Bit rate mode : Constant
Bit rate : 448 Kbps
Channel(s) : 2 channels
Channel positions : Front: L R
Sampling rate : 48.0 KHz
Bit depth : 16 bits
Compression mode : Lossy
Delay relative to video : 30ms
Stream size : 269 MiB (19%)
Alignment : Split accross interleaves
Interleave, duration : 42 ms (1.00 video frame)
Interleave, preload duration : 500 ms

pb.wtf



Скачать На дне мира через торрент http://i89.fastpic.ru/big/2017/0331/24/2e44e678f754e58c14ed562a0bcdd824.jpg Скачать фильм На дне мира через торрент бесплантно в хорошем качестве Описание: Двое молодых людей путешествуют по стране. Пытаясь найти место, где можно отдохнуть и расслабиться от долгого пути, они находят ... 10 10 9
Торрент: Зарегистрирован [2017-04-01 06:17] · скачан: 532 раз
Статус: T временная
Размер: 1.37 GB
Как cкачать? Как скачать На дне мира через торрент | UTorrent

28-11-2019 20:33  

Отключить всю рекламу на сайте

    Дорогой пользователь! Огромная просьба, поблагодарите релизера, оцените раздачу и оставьте свои комментарий, если Вы скачали На дне мира через торрент бесплатно! Внесите свою лепту в развитие PiratBit!
    Комментировать посты могут только пользователи прошедшие не сложную регистрацию
    Показать сообщения:    

    На дне мира через торрент
    Скачать бесплатно На дне мира
    На дне мира скачать торрент
    На дне мира смотреть онлайн
    Cкачать фильм На дне мира бесплатно
    На дне мира скачать торрент в хорошем качестве
    На дне мира смотреть онлайн бесплатно в хорошем качестве


    Вы не можете начинать темы
    Вы не можете отвечать на сообщения
    Вы не можете редактировать свои сообщения
    Вы не можете удалять свои сообщения
    Вы не можете голосовать в опросах
    Вы не можете прикреплять файлы к сообщениям
    Вы можете скачивать файлы