2 сезон

iTunes

1 сезон

1

iTunes

iTunes

iTunes

1 сезон

RePack

30

ИГРА 18+

pack

ВАЖНО

!!Акция!!

Alien_RageХит недели

RePack

MK11
pack

Забери бонус

RePack

jed

!!Акция!!

Alien_Rage

RePack

fifa19

RePack

Assassins Creed: Odyssey

RePack

NEED FOR SPEED™ PAYBACK

4 сезон

9 сезон

Бесстыжие 9 сезон

Все сериалы

все сериалы на PB.wtf

RePack

FAR CRY 5
  

Я убил свою маму / J'ai tué ma mère (Ксавье Долан) [2009, драма, биография, BDRip 720p by msltel] DVO, VO pb.wtf

Я убил свою маму через торрент pb.wtf

Размер: 3.48 GB | Добавлен: 3 года 6 мес. назад | Торрент скачан:37 раз
Скачать  

01-04-2017 07:01 Я убил свою маму Скачать торрент  

Название: Я убил свою маму
Оригинальное название: J'ai tué ma mère
Год выпуска: 2009
Страна: Канада
Жанр: драма, биография
Продолжительность: 01:39:57
Перевод: профессиональный двухголосый, любительский одноголосый

Режиссёр: Ксавье Долан

В ролях: Анн Дорваль, Ксавье Долан, Франсуа Арно, Сюзанн Клементе, Патрисия Туласн, Нильс Шнайдер, Моника Спациани, Джим Карден, Эмий Мейо, Паскаль Одри

Описание: 16-летний Юбер пытается отстоять независимость и собственное достоинство перед матерью, которую он как любит, так и ненавидит. Мать любит его, но не умеет показать свои чувства сыну. Она замучена работой, страдает от одиночества после того, как муж ушёл из семьи. Юбера, талантливого художника, раздражает в матери всё: безвкусная одежда, манера есть, неумение разговаривать. А его мать Шанталь не находит в себе силы и не умеет понять проблем юноши. Она не готова признать сына самостоятельным взрослым человеком, выпустить его из-под своей, часто излишней, опеки. Друзья, первый сексуальный опыт, одиночество, поиски юношей своего места в жизни — всё остаётся скрытым от матери... Ксавье Долан написал сценарий для своего фильма, когда ему было 16 лет.



Качество: BDRip 720p
Формат: MKV
Видео: MPEG-4 AVC, 4403 Kбит/с, 1280x682, 23,976 кадра/с
Аудио 1: русский, AC3, 192 kbps, 2 ch, 48 kHz [профессиональный двухголосый]
Аудио 2: русский, AC3, 192 kbps, 2 ch, 48 kHz [любительский одноголосый, Maloi-1505 по переводу Kreisler]
Аудио 3: французский, AC3, 192 kbps, 2 ch, 48 kHz [оригинал]
Субтитры 1: русские
Субтитры 2: французские
Субтитры 3: английские
Имеются неименованные главы/чаптеры.
frame I:890 Avg QP:14.33 size: 98886
frame P:25000 Avg QP:15.40 size: 41923
frame B:117861 Avg QP:16.77 size: 18361
Общее
Уникальный идентификатор : 227011636571460251994544380065947041810 (0xAAC8D9D1F185CA5F8B5316C622BBC012)
Полное имя : D:\Video\Я убил свою маму.2009.BDRip.720p by msltel.mkv
Формат : Matroska
Версия формата : Version 4 / Version 2
Размер файла : 3,48 Гбайт
Продолжительность : 1 ч. 39 м.
Общий поток : 4980 Кбит/сек
Название фильма : Rip by msltel
Дата кодирования : UTC 2017-03-31 13:05:05
Программа кодирования : mkvmerge v8.2.0 ('World of Adventure') 64bit
Библиотека кодирования : libebml v1.3.1 + libmatroska v1.4.2

Видео
Идентификатор : 1
Формат : AVC
Формат/Информация : Advanced Video Codec
Профиль формата : High@L4.1
Параметр CABAC формата : Да
Параметр ReFrames формата : 9 кадров
Идентификатор кодека : V_MPEG4/ISO/AVC
Продолжительность : 1 ч. 39 м.
Битрейт : 4403 Кбит/сек
Ширина : 1280 пикселей
Высота : 682 пикселя
Соотношение сторон : 1,85:1
Режим частоты кадров : Постоянный
Частота кадров : 23,976 (24000/1001) кадра/сек
Цветовое пространство : YUV
Субдискретизация насыщенности : 4:2:0
Битовая глубина : 8 бит
Тип развёртки : Прогрессивная
Бит/(Пиксели*Кадры) : 0.210
Размер потока : 3,07 Гбайт (88%)
Библиотека кодирования : x264 core 146 r2538 121396c
Настройки программы : cabac=1 / ref=9 / deblock=1:-3:-2 / analyse=0x3:0x113 / me=umh / subme=11 / psy=1 / psy_rd=1.00:0.15 / mixed_ref=1 / me_range=32 / chroma_me=1 / trellis=2 / 8x8dct=1 / cqm=0 / deadzone=21,11 / fast_pskip=0 / chroma_qp_offset=-3 / threads=6 / lookahead_threads=1 / sliced_threads=0 / nr=0 / decimate=1 / interlaced=0 / bluray_compat=0 / constrained_intra=0 / bframes=12 / b_pyramid=2 / b_adapt=2 / b_bias=0 / direct=1 / weightb=1 / open_gop=0 / weightp=2 / keyint=230 / keyint_min=23 / scenecut=40 / intra_refresh=0 / rc_lookahead=40 / rc=crf / mbtree=0 / crf=17.8 / qcomp=0.60 / qpmin=0 / qpmax=69 / qpstep=4 / vbv_maxrate=62500 / vbv_bufsize=78125 / crf_max=0.0 / nal_hrd=none / filler=0 / ip_ratio=1.40 / pb_ratio=1.30 / aq=1:1.00
Язык : French
Default : Да
Forced : Нет

Аудио #1
Идентификатор : 2
Формат : AC-3
Формат/Информация : Audio Coding 3
Параметр Endianness формата : Big
Идентификатор кодека : A_AC3
Продолжительность : 1 ч. 39 м.
Вид битрейта : Постоянный
Битрейт : 192 Кбит/сек
Каналы : 2 канала
Расположение каналов : Front: L R
Частота : 48,0 КГц
Частота кадров : 31,250 кадров/сек (1536 spf)
Битовая глубина : 16 бит
Метод сжатия : С потерями
Размер потока : 137 Мбайт (4%)
Заголовок : DVO
Язык : Russian
ServiceKind/String : Complete Main
Default : Да
Forced : Нет

Аудио #2
Идентификатор : 3
Формат : AC-3
Формат/Информация : Audio Coding 3
Параметр Endianness формата : Big
Идентификатор кодека : A_AC3
Продолжительность : 1 ч. 39 м.
Вид битрейта : Постоянный
Битрейт : 192 Кбит/сек
Каналы : 2 канала
Расположение каналов : Front: L R
Частота : 48,0 КГц
Частота кадров : 31,250 кадров/сек (1536 spf)
Битовая глубина : 16 бит
Метод сжатия : С потерями
Размер потока : 137 Мбайт (4%)
Заголовок : любительский одноголосый, Maloi-1505 по переводу Kreisler
Язык : Russian
ServiceKind/String : Complete Main
Default : Нет
Forced : Нет

Аудио #3
Идентификатор : 4
Формат : AC-3
Формат/Информация : Audio Coding 3
Параметр Endianness формата : Big
Идентификатор кодека : A_AC3
Продолжительность : 1 ч. 39 м.
Вид битрейта : Постоянный
Битрейт : 192 Кбит/сек
Каналы : 2 канала
Расположение каналов : Front: L R
Частота : 48,0 КГц
Частота кадров : 31,250 кадров/сек (1536 spf)
Битовая глубина : 16 бит
Метод сжатия : С потерями
Размер потока : 137 Мбайт (4%)
Заголовок : original
Язык : French
ServiceKind/String : Complete Main
Default : Нет
Forced : Нет

Текст #1
Идентификатор : 5
Формат : UTF-8
Идентификатор кодека : S_TEXT/UTF8
Идентификатор кодека/Информация : UTF-8 Plain Text
Продолжительность : 1 ч. 38 м.
Битрейт : 87 бит/сек
ElementCount : 759
Размер потока : 63,1 Кбайт (0%)
Заголовок : русские
Язык : Russian
Default : Нет
Forced : Нет

Текст #2
Идентификатор : 6
Формат : UTF-8
Идентификатор кодека : S_TEXT/UTF8
Идентификатор кодека/Информация : UTF-8 Plain Text
Продолжительность : 1 ч. 35 м.
Битрейт : 54 бит/сек
ElementCount : 1082
Размер потока : 38,1 Кбайт (0%)
Заголовок : французские
Язык : French
Default : Нет
Forced : Нет

Текст #3
Идентификатор : 7
Формат : UTF-8
Идентификатор кодека : S_TEXT/UTF8
Идентификатор кодека/Информация : UTF-8 Plain Text
Продолжительность : 1 ч. 35 м.
Битрейт : 46 бит/сек
ElementCount : 1082
Размер потока : 32,3 Кбайт (0%)
Заголовок : английские
Язык : English
Default : Нет
Forced : Нет

Меню
00:00:00.000 : :Chapter 01
00:07:55.057 : :Chapter 02
00:15:25.507 : :Chapter 03
00:25:48.129 : :Chapter 04
00:33:48.609 : :Chapter 05
00:39:22.777 : :Chapter 06
00:48:12.222 : :Chapter 07
00:58:22.707 : :Chapter 08
01:05:11.782 : :Chapter 09
01:14:19.746 : :Chapter 10
01:23:12.070 : :Chapter 11
01:32:34.423 : :Chapter 12
pb.wtf



Скачать Я убил свою маму через торрент http://hostpic.gq/img/2017-04/01/zm7t0x1v25oi7a741tar3q2c7.jpg Скачать фильм Я убил свою маму через торрент бесплантно в хорошем качестве Описание: 16-летний Юбер пытается отстоять независимость и собственное достоинство перед матерью, которую он как любит, так и ненавидит. ... 7.8 10 4
Info! Золотая раздача, скачанное не засчитывается.
Торрент: Зарегистрирован [2017-04-01 07:01] · скачан: 37 раз
Статус: √ проверено
Размер: 3.48 GB
Как cкачать? Как скачать Я убил свою маму через торрент | qTorrent

28-11-2019 20:33  

Отключить всю рекламу на сайте

    Дорогой пользователь! Огромная просьба, поблагодарите релизера, оцените раздачу и оставьте свои комментарий, если Вы скачали Я убил свою маму через торрент бесплатно! Внесите свою лепту в развитие PiratBit!
    Комментировать посты могут только пользователи прошедшие не сложную регистрацию
    Показать сообщения:    

    Я убил свою маму через торрент
    Скачать бесплатно Я убил свою маму
    Я убил свою маму скачать торрент
    Я убил свою маму смотреть онлайн
    Cкачать фильм Я убил свою маму бесплатно
    Я убил свою маму скачать торрент в хорошем качестве
    Я убил свою маму смотреть онлайн бесплатно в хорошем качестве


    Вы не можете начинать темы
    Вы не можете отвечать на сообщения
    Вы не можете редактировать свои сообщения
    Вы не можете удалять свои сообщения
    Вы не можете голосовать в опросах
    Вы не можете прикреплять файлы к сообщениям
    Вы можете скачивать файлы