Ссылка на приватное зеркало нашего сайта всего за 1$. Внимание количество ограничено!!!

2 сезон

iTunes

1 сезон

1

iTunes

iTunes

iTunes

1 сезон

RePack

30

ИГРА 18+

pack

ВАЖНО

!!Акция!!

Alien_RageХит недели

RePack

MK11
pack

Забери бонус

RePack

jed

!!Акция!!

Alien_Rage

RePack

fifa19

RePack

Assassins Creed: Odyssey

RePack

NEED FOR SPEED™ PAYBACK

4 сезон

9 сезон

Бесстыжие 9 сезон

Все сериалы

все сериалы на PB.wtf

RePack

FAR CRY 5
  

Телефонная будка / Phone Booth (Джоэл Шумахер) [2002, триллер, криминал, BDRip 720p by msltel] DUB, 2 x MVO, 2 x AVO pb.wtf

Телефонная будка через торрент pb.wtf

Размер: 3.88 GB | Добавлен: 3 года 6 мес. назад | Торрент скачан:160 раз
Скачать  

01-04-2017 11:02 Телефонная будка Скачать торрент  

Название: Телефонная будка
Оригинальное название: Phone Booth
Год выпуска: 2002
Страна: США
Жанр: триллер, криминал
Продолжительность: 01:21:00
Перевод: дублированный, профессиональный многоголосый, авторский

Режиссёр: Джоэл Шумахер

В ролях: Колин Фаррелл, Кифер Сазерленд, Форест Уитакер, Рада Митчелл, Кэти Холмс, Пола Джей Паркер, Ариан Варинг Эш, Тиа Тексада, Джон Инос III, Ричард Т. Джонс, Кит Ноббс, Делл Йонт, Джеймс МакДональд, Джош Пэйс, Йорго Константин, Колин Патрик Линч, Трой Гилберт, Ричард Парадайз, Сет Уильям Мейер, Светлана Ефремова, Билли Эрб, Доменик Ломбардоззи, Мэйл Флэнеган, Том Рейнольдс, Хулио Оскар Мечосо, Карара Мухоро, Зиду Чен, Шу Лан Туан, Дин Кохрэн, Эми Коваллис, Тори Киттлз, Брюс Робертс, Тайри Майкл Симпсон, Дин Таролли, Мэри Рэндл, Пол Фонтана

Описание: Один телефонный звонок может изменить всю жизнь человека или даже оборвать её. Герой фильма Стью Шеферд становится пленником телефонной будки. Что вы сделаете, если услышите, как в телефонной будке зазвонил телефон? Скорее всего, инстинктивно поднимете трубку, хотя прекрасно знаете, что кто-то просто ошибся номером. Вот и Стью кажется, что на звонок надо обязательно ответить, а в результате он оказывается втянутым в чудовищную игру. «Только положи трубку, и ты — труп», — говорит ему невидимый собеседник...



Качество: BDRip 720p
Формат: MKV
Видео: MPEG-4 AVC, 4297 Кбит/с, 1280x542, 23,976 кадра/с
Аудио 1: русский, AC3, 384 kbps, 6 ch, 48 kHz [дублированный]
Аудио 2: русский, AC3, 448 kbps, 6 ch, 48 kHz [профессиональный многоголосый, вариант 1]
Аудио 3: русский, AC3, 384 kbps, 6 ch, 48 kHz [профессиональный многоголосый, вариант 2]
Аудио 4: русский, AC3, 448 kbps, 6 ch, 48 kHz [авторский, Евгений Рудой]
Аудио 5: русский, AC3, 448 kbps, 6 ch, 48 kHz [авторский, Юрий Сербин]
Аудио 6: английский, AC3, 448 kbps, 6 ch, 48 kHz [оригинал]
Субтитры 1: русские
Субтитры 2: английские
Имеются неименованные главы/чаптеры.
Общее
Уникальный идентификатор : 175721428963319544353647209363142449026 (0x8432B7584CBBFFE1812D33A4D54D9782)
Полное имя : D:\Video\Телефонная будка.2002.BDRip.720p by msltel.mkv
Формат : Matroska
Версия формата : Version 4 / Version 2
Размер файла : 3,88 Гбайт
Продолжительность : 1 ч. 21 м.
Общий поток : 6861 Кбит/сек
Название фильма : Rip by msltel
Дата кодирования : UTC 2017-04-01 02:12:22
Программа кодирования : mkvmerge v8.2.0 ('World of Adventure') 64bit
Библиотека кодирования : libebml v1.3.1 + libmatroska v1.4.2

Видео
Идентификатор : 1
Формат : AVC
Формат/Информация : Advanced Video Codec
Профиль формата : High@L4.1
Параметр CABAC формата : Да
Параметр ReFrames формата : 9 кадров
Идентификатор кодека : V_MPEG4/ISO/AVC
Продолжительность : 1 ч. 21 м.
Битрейт : 4297 Кбит/сек
Ширина : 1280 пикселей
Высота : 542 пикселя
Соотношение сторон : 2,35:1
Режим частоты кадров : Постоянный
Частота кадров : 23,976 (24000/1001) кадра/сек
Цветовое пространство : YUV
Субдискретизация насыщенности : 4:2:0
Битовая глубина : 8 бит
Тип развёртки : Прогрессивная
Бит/(Пиксели*Кадры) : 0.258
Размер потока : 2,43 Гбайт (63%)
Библиотека кодирования : x264 core 146 r2538 121396c
Настройки программы : cabac=1 / ref=9 / deblock=1:-3:-2 / analyse=0x3:0x113 / me=umh / subme=11 / psy=1 / psy_rd=1.00:0.15 / mixed_ref=1 / me_range=32 / chroma_me=1 / trellis=2 / 8x8dct=1 / cqm=0 / deadzone=21,11 / fast_pskip=0 / chroma_qp_offset=-3 / threads=6 / lookahead_threads=1 / sliced_threads=0 / nr=0 / decimate=1 / interlaced=0 / bluray_compat=0 / constrained_intra=0 / bframes=8 / b_pyramid=2 / b_adapt=2 / b_bias=0 / direct=1 / weightb=1 / open_gop=0 / weightp=2 / keyint=230 / keyint_min=23 / scenecut=40 / intra_refresh=0 / rc_lookahead=40 / rc=crf / mbtree=0 / crf=19.5 / qcomp=0.60 / qpmin=0 / qpmax=69 / qpstep=4 / vbv_maxrate=62500 / vbv_bufsize=78125 / crf_max=0.0 / nal_hrd=none / filler=0 / ip_ratio=1.40 / pb_ratio=1.30 / aq=1:1.00
Язык : English
Default : Да
Forced : Нет

Аудио #1
Идентификатор : 2
Формат : AC-3
Формат/Информация : Audio Coding 3
Параметр Endianness формата : Big
Идентификатор кодека : A_AC3
Продолжительность : 1 ч. 21 м.
Вид битрейта : Постоянный
Битрейт : 384 Кбит/сек
Каналы : 6 каналов
Расположение каналов : Front: L C R, Side: L R, LFE
Частота : 48,0 КГц
Частота кадров : 31,250 кадров/сек (1536 spf)
Битовая глубина : 16 бит
Метод сжатия : С потерями
Размер потока : 222 Мбайт (6%)
Заголовок : DUB
Язык : Russian
ServiceKind/String : Complete Main
Default : Да
Forced : Нет

Аудио #2
Идентификатор : 3
Формат : AC-3
Формат/Информация : Audio Coding 3
Параметр Endianness формата : Big
Идентификатор кодека : A_AC3
Продолжительность : 1 ч. 21 м.
Вид битрейта : Постоянный
Битрейт : 448 Кбит/сек
Каналы : 6 каналов
Расположение каналов : Front: L C R, Side: L R, LFE
Частота : 48,0 КГц
Частота кадров : 31,250 кадров/сек (1536 spf)
Битовая глубина : 16 бит
Метод сжатия : С потерями
Размер потока : 260 Мбайт (7%)
Заголовок : MVO (вариант 1)
Язык : Russian
ServiceKind/String : Complete Main
Default : Нет
Forced : Нет

Аудио #3
Идентификатор : 4
Формат : AC-3
Формат/Информация : Audio Coding 3
Параметр Endianness формата : Big
Идентификатор кодека : A_AC3
Продолжительность : 1 ч. 21 м.
Вид битрейта : Постоянный
Битрейт : 384 Кбит/сек
Каналы : 6 каналов
Расположение каналов : Front: L C R, Side: L R, LFE
Частота : 48,0 КГц
Частота кадров : 31,250 кадров/сек (1536 spf)
Битовая глубина : 16 бит
Метод сжатия : С потерями
Размер потока : 222 Мбайт (6%)
Заголовок : MVO (вариант 2)
Язык : Russian
ServiceKind/String : Complete Main
Default : Нет
Forced : Нет

Аудио #4
Идентификатор : 5
Формат : AC-3
Формат/Информация : Audio Coding 3
Параметр Endianness формата : Big
Идентификатор кодека : A_AC3
Продолжительность : 1 ч. 21 м.
Вид битрейта : Постоянный
Битрейт : 448 Кбит/сек
Каналы : 6 каналов
Расположение каналов : Front: L C R, Side: L R, LFE
Частота : 48,0 КГц
Частота кадров : 31,250 кадров/сек (1536 spf)
Битовая глубина : 16 бит
Метод сжатия : С потерями
Размер потока : 260 Мбайт (7%)
Заголовок : AVO (Евгений Рудой)
Язык : Russian
ServiceKind/String : Complete Main
Default : Нет
Forced : Нет

Аудио #5
Идентификатор : 6
Формат : AC-3
Формат/Информация : Audio Coding 3
Параметр Endianness формата : Big
Идентификатор кодека : A_AC3
Продолжительность : 1 ч. 21 м.
Вид битрейта : Постоянный
Битрейт : 448 Кбит/сек
Каналы : 6 каналов
Расположение каналов : Front: L C R, Side: L R, LFE
Частота : 48,0 КГц
Частота кадров : 31,250 кадров/сек (1536 spf)
Битовая глубина : 16 бит
Метод сжатия : С потерями
Размер потока : 260 Мбайт (7%)
Заголовок : AVO (Юрий Сербин)
Язык : Russian
ServiceKind/String : Complete Main
Default : Нет
Forced : Нет

Аудио #6
Идентификатор : 7
Формат : AC-3
Формат/Информация : Audio Coding 3
Параметр Endianness формата : Big
Идентификатор кодека : A_AC3
Продолжительность : 1 ч. 21 м.
Вид битрейта : Постоянный
Битрейт : 448 Кбит/сек
Каналы : 6 каналов
Расположение каналов : Front: L C R, Side: L R, LFE
Частота : 48,0 КГц
Частота кадров : 31,250 кадров/сек (1536 spf)
Битовая глубина : 16 бит
Метод сжатия : С потерями
Размер потока : 260 Мбайт (7%)
Заголовок : original
Язык : English
ServiceKind/String : Complete Main
Default : Нет
Forced : Нет

Текст #1
Идентификатор : 8
Формат : UTF-8
Идентификатор кодека : S_TEXT/UTF8
Идентификатор кодека/Информация : UTF-8 Plain Text
Продолжительность : 1 ч. 14 м.
Битрейт : 193 бит/сек
ElementCount : 1375
Размер потока : 105 Кбайт (0%)
Заголовок : русские
Язык : Russian
Default : Нет
Forced : Нет

Текст #2
Идентификатор : 9
Формат : UTF-8
Идентификатор кодека : S_TEXT/UTF8
Идентификатор кодека/Информация : UTF-8 Plain Text
Продолжительность : 1 ч. 12 м.
Битрейт : 116 бит/сек
ElementCount : 1253
Размер потока : 62,1 Кбайт (0%)
Заголовок : английские
Язык : English
Default : Нет
Forced : Нет

Меню
00:00:00.000 : :Chapter 01
00:03:42.972 : :Chapter 02
00:08:58.454 : :Chapter 03
00:10:20.369 : :Chapter 04
00:11:45.955 : :Chapter 05
00:14:05.594 : :Chapter 06
00:17:34.386 : :Chapter 07
00:21:19.319 : :Chapter 08
00:23:22.359 : :Chapter 09
00:25:01.416 : :Chapter 10
00:29:00.947 : :Chapter 11
00:32:00.627 : :Chapter 12
00:34:57.762 : :Chapter 13
00:39:19.440 : :Chapter 14
00:43:10.296 : :Chapter 15
00:45:54.501 : :Chapter 16
00:47:50.534 : :Chapter 17
00:51:44.059 : :Chapter 18
00:54:09.621 : :Chapter 19
00:56:35.767 : :Chapter 20
00:58:09.486 : :Chapter 21
01:00:58.237 : :Chapter 22
01:03:53.204 : :Chapter 23
01:08:50.417 : :Chapter 24
01:11:06.095 : :Chapter 25
01:12:30.554 : :Chapter 26
01:14:06.066 : :Chapter 27
01:15:02.456 : :Chapter 28
01:21:00.105 : :Chapter 29
pb.wtf



Скачать Телефонная будка через торрент http://hostpic.gq/img/2017-04/01/1vtg4lvc1lk4wl1hu9i2lrft1.jpg Скачать фильм Телефонная будка через торрент бесплантно в хорошем качестве Описание: Один телефонный звонок может изменить всю жизнь человека или даже оборвать её. Герой фильма Стью Шеферд становится пленником ... 8.9 10 8
Info! Золотая раздача, скачанное не засчитывается.
Торрент: Зарегистрирован [2017-04-01 11:02] · скачан: 160 раз
Статус: √ проверено
Размер: 3.88 GB
Как cкачать? Как скачать Телефонная будка через торрент | qTorrent

% Раздел Тема Автор DL S | L
Фильмы [HD 720p, 1080p] (Хороший звук DUB, MVO) [ 10.74 GB ] Телефонная будка / Phone Booth [2002 BDRip 1080p by msltel] DUB 2 x MVO 2 x AVO msltel Скачать
1 | 0

28-11-2019 20:33  

Отключить всю рекламу на сайте

01-04-2017 13:10 Телефонная будка Скачать торрент  

отличный фильм!pb.wtf



01-04-2017 16:38 Телефонная будка Скачать торрент  

классный фильм!pb.wtf



01-04-2017 18:44 Телефонная будка Скачать торрент  

фильм очень хороший. кто не смотрел - всем советую.события на одном месте развиваются.но фильм держит в напряжении все времяpb.wtf



01-04-2017 22:18 Телефонная будка Скачать торрент  

К предыдущим постам +1.pb.wtf



02-04-2017 13:52 Телефонная будка Скачать торрент  

Фильм однозначно всем смотреть...pb.wtf



    Дорогой пользователь! Огромная просьба, поблагодарите релизера, оцените раздачу и оставьте свои комментарий, если Вы скачали Телефонная будка через торрент бесплатно! Внесите свою лепту в развитие PiratBit!
    Комментировать посты могут только пользователи прошедшие не сложную регистрацию
    Показать сообщения:    

    Телефонная будка через торрент
    Скачать бесплатно Телефонная будка
    Телефонная будка скачать торрент
    Телефонная будка смотреть онлайн
    Cкачать фильм Телефонная будка бесплатно
    Телефонная будка скачать торрент в хорошем качестве
    Телефонная будка смотреть онлайн бесплатно в хорошем качестве


    Вы не можете начинать темы
    Вы не можете отвечать на сообщения
    Вы не можете редактировать свои сообщения
    Вы не можете удалять свои сообщения
    Вы не можете голосовать в опросах
    Вы не можете прикреплять файлы к сообщениям
    Вы можете скачивать файлы