Ссылка на приватное зеркало нашего сайта всего за 1$. Внимание количество ограничено!!!

2 сезон

iTunes

1 сезон

1

iTunes

iTunes

iTunes

1 сезон

RePack

30

ИГРА 18+

pack

ВАЖНО

!!Акция!!

Alien_RageХит недели

RePack

MK11
pack

Забери бонус

RePack

jed

!!Акция!!

Alien_Rage

RePack

fifa19

RePack

Assassins Creed: Odyssey

RePack

NEED FOR SPEED™ PAYBACK

4 сезон

9 сезон

Бесстыжие 9 сезон

Все сериалы

все сериалы на PB.wtf

RePack

FAR CRY 5
  

Забытая женщина / Серия 1-4 из 4 / (Денис Елеонский) [2017 г., Мелодрама, SATRip] pb.wtf

Забытая женщина через торрент pb.wtf

Размер: 2.35 GB | Добавлен: 3 года 6 мес. назад | Торрент скачан:75 раз
Скачать  

01-04-2017 11:52 Забытая женщина Скачать торрент  

Забытая женщина / Серия 1-4 из 4 /
Год выпуска: 2017
Страна: Россия
Жанр: Мелодрама
Продолжительность: 4 х ~ 00: 44:00 мин.
Субтитры: нет

Режиссер: Денис Елеонский

В ролях: Ирина Розанова, Александр Игнатуша, Алексей Морозов, Анна Миклош, Артур Ваха, Максимиллиан Имас, Владимир Ямненко, Нина Набока, Наталья Кленина, Станислав Москвин, Игорь Славинский, Александр Пожарский

Описание: Спустя неделю после трагической гибели Анатолия Ивановича его сын Сергей переживает новый шок. Он получает письмо от матери, которую все считали давно умершей. Мать рассказывает Сергею, что его отец бросил её, безнадежно больную туберкулёзом, почти тридцать лет назад. Однако она выжила, за долгие годы испытала много невзгод и вот теперь решила найти сына. Сергей счастлив. Он привозит мать в свой дом. Но у нее почему-то сразу не складываются отношения с невесткой. Жена Сергея не доверяет Валентине, ей кажется, что за появлением этой женщины кроется что-то странное. Ольга пытается выяснить, что произошло в семье Коростылёвых тридцать лет назад. Она едет в город, где прошло детство Сергея. Правда, которую она постепенно открывает, оказывается настоящей бочкой с динамитом. Ольга понимает, что ей надо срочно спасать свою семью. Вот только удастся ли ей выбраться из этого города живой?

Качество: SATRip
Формат: AVI
Видео кодек: XviD
Аудио кодек: MP3
Видео: 720x400 (1.80:1), 25 fps, XviD build 50 ~1800 kbps
Аудио#1: 48 kHz, MPEG Layer 3, 2 ch, ~128.00 kbps avg



General
Complete name : H:\релизы.торрентфайл\Zabytaja.zhenshhina.SATRip.[www.riperam.org]\Zabytaja.zhenshhina.01.SATRip.[www.riperam.org].avi
Format : AVI
Format/Info : Audio Video Interleave
File size : 605 MiB
Duration : 43mn 40s
Overall bit rate : 1 938 Kbps
Writing application : VirtualDubMod 1.5.10.3 | www.virtualdub-fr.org || (build 2550/release)
Writing library : VirtualDubMod build 2550/release

Video
ID : 0
Format : MPEG-4 Visual
Format profile : Advanced Simple@L5
Format settings, BVOP : 2
Format settings, QPel : No
Format settings, GMC : No warppoints
Format settings, Matrix : Default (H.263)
Codec ID : XVID
Codec ID/Hint : XviD
Duration : 43mn 40s
Bit rate : 1 800 Kbps
Width : 720 pixels
Height : 400 pixels
Display aspect ratio : 16:9
Frame rate : 25.000 fps
Color space : YUV
Chroma subsampling : 4:2:0
Bit depth : 8 bits
Scan type : Progressive
Compression mode : Lossy
Bits/(Pixel*Frame) : 0.250
Stream size : 562 MiB (93%)
Writing library : XviD 1.2.1 (UTC 2008-12-04)

Audio
ID : 1
Format : MPEG Audio
Format version : Version 1
Format profile : Layer 3
Mode : Joint stereo
Mode extension : MS Stereo
Codec ID : 55
Codec ID/Hint : MP3
Duration : 43mn 40s
Bit rate mode : Constant
Bit rate : 128 Kbps
Channel(s) : 2 channels
Sampling rate : 48.0 KHz
Compression mode : Lossy
Stream size : 40.0 MiB (7%)
Alignment : Aligned on interleaves
Interleave, duration : 40 ms (1.00 video frame)
Interleave, preload duration : 504 ms
Writing library : LAME3.99r
Encoding settings : -m j -V 4 -q 9 -lowpass 17 -b 128

pb.wtf



Скачать Забытая женщина через торрент http://pic1.kartinco.top/images/11/zz7q7.jpg Скачать фильм Забытая женщина через торрент бесплантно в хорошем качестве Описание: Спустя неделю после трагической гибели Анатолия Ивановича его сын Сергей переживает новый шок. Он получает письмо от матери, ... 10 10 1
Торрент: Зарегистрирован [2017-04-01 11:52] · скачан: 75 раз
Статус: √ проверено
Размер: 2.35 GB
Как cкачать? Как скачать Забытая женщина через торрент | qTorrent

% Раздел Тема Автор DL S | L
Наши сериалы [ 1.93 GB ] Забытая женщина / Серии: 1-4 из 4 [2017 SATRip-AVC] aleksan55 Скачать
1 | 0

28-11-2019 20:33  

Отключить всю рекламу на сайте

    Дорогой пользователь! Огромная просьба, поблагодарите релизера, оцените раздачу и оставьте свои комментарий, если Вы скачали Забытая женщина через торрент бесплатно! Внесите свою лепту в развитие PiratBit!
    Комментировать посты могут только пользователи прошедшие не сложную регистрацию
    Показать сообщения:    

    Забытая женщина через торрент
    Скачать бесплатно Забытая женщина
    Забытая женщина скачать торрент
    Забытая женщина смотреть онлайн
    Cкачать фильм Забытая женщина бесплатно
    Забытая женщина скачать торрент в хорошем качестве
    Забытая женщина смотреть онлайн бесплатно в хорошем качестве


    Вы не можете начинать темы
    Вы не можете отвечать на сообщения
    Вы не можете редактировать свои сообщения
    Вы не можете удалять свои сообщения
    Вы не можете голосовать в опросах
    Вы не можете прикреплять файлы к сообщениям
    Вы можете скачивать файлы