Ссылка на приватное зеркало нашего сайта всего за 1$. Внимание количество ограничено!!!

2 сезон

iTunes

1 сезон

1

2 сезон

2 сезон

iTunes

1 сезон

RePack

30

Новинка

ВАЖНО

ИГРА 18+

pack

RePack

MK11
pack

Забери бонус

RePack

jed

!!Акция!!

Alien_Rage

RePack

fifa19

RePack

Assassins Creed: Odyssey

RePack

NEED FOR SPEED™ PAYBACK

4 сезон

9 сезон

Бесстыжие 9 сезон

Все сериалы

все сериалы на PB.wtf

RePack

FAR CRY 5
  

Обитель зла: Последняя глава / Resident Evil: The Final Chapter (Пол У. С. Андерсон) [2016, Ужасы, Фантастика, Боевик, Триллер, BDRemux1080p] MVO [AMS] pb.wtf

Скачать  

02-04-2017 04:15 Обитель зла: Последняя глава Скачать торрент  

Информация о фильме
Название: Обитель зла: Последняя глава
Оригинальное название: Resident Evil: The Final Chapter
Год выхода: 2016
Жанр: Ужасы, Фантастика, Боевик, Триллер
Страна: Франция, Германия, Канада, Австралия, США
Студия: Capcom Entertainment, Impact Pictures, Screen Gems
Продолжительность: 01:46:40
Перевод: Профессиональный (Многоголосый закадровый) (AMS)
Субтитры: Русские, английские (PGS)

Роли озвучивали: Марина Гладкая, Виктория Слуцкая, Станислав Войнич, Вадим Прохоров, Максим Сергеев, Андрей Тенетко.

Режиссер: Пол У. С. Андерсон

В ролях: Милла Йовович, Иэн Глен, Эли Лартер, Шон Робертс, Оуэн Мэкен, Фрайзер Джеймс, Руби Роуз, Уильям Леви, Рола, Эвер Андерсон и другие

О фильме:

Действия фильма разворачиваются с того момента, на котором закончилась предыдущая часть. После того как Вескер предал Элис в Вашингтоне, конец истории человечества стал еще ближе. Элис — последняя надежда на спасение мира. Она должна вернуться к точке отсчета, туда, где все и началось — город Раккун-Сити, где корпорация «Амбрелла» готовится к финальной атаке по тем, кому удалось выжить.

В гонке со временем Элис вооружится до зубов и объединится с друзьями и теми, кого не ожидала увидеть в роли своих союзников. Вместе они будут биться против армии мертвецов и новых чудовищных мутантов. Находясь под угрозой потери своих способностей и готовясь к неминуемой атаке корпорации, Элис столкнется с еще более трудными проблемами, а человечество тем временем будет находиться на грани гибели.



Качество: BDRemux
Формат: MKV
Видео: AVC, 1920x1080, 21700 Kbps, 23.976fps
Аудио 1: DTS-HD MA, 48 KHz, 16-bits, 8 ch, 3072 Kbps - Русский (AMS)
Аудио 2: DTS-HD MA, 48 KHz, 16-bits, 8 ch, 3072 Kbps - Английский (оригинал)

Семпл
General

Unique ID : 123526497922974318526687626358799693261 (0x5CEE568F865832954B261BEC8EAB75CD)

Complete name : /Resident.Evil.The.Final.Chapter.2016.BDREMUX.1080p.AMS.mkv

Format : Matroska

Format version : Version 4 / Version 2

File size : 20.8 GiB

Duration : 1h 46mn

Overall bit rate mode : Variable

Overall bit rate : 27.9 Mbps

Movie name : Resident Evil: The Final Chapter (2016) [MVO AMS]

Encoded date : UTC 2017-03-30 14:35:02

Writing application : mkvmerge v8.2.0 ('World of Adventure') 64bit

Writing library : libebml v1.3.1 + libmatroska v1.4.2

Video

ID : 1

Format : AVC

Format/Info : Advanced Video Codec

Format profile : High@L4.1

Format settings, CABAC : Yes

Format settings, ReFrames : 2 frames

Format settings, GOP : M=1, N=10

Codec ID : V_MPEG4/ISO/AVC

Duration : 1h 46mn

Bit rate mode : Variable

Bit rate : 21.7 Mbps

Width : 1 920 pixels

Height : 1 080 pixels

Display aspect ratio : 16:9

Frame rate mode : Constant

Frame rate : 23.976 (24000/1001) fps

Color space : YUV

Chroma subsampling : 4:2:0

Bit depth : 8 bits

Scan type : Progressive

Bits/(Pixel*Frame) : 0.437

Stream size : 16.2 GiB (78%)

Title : Resident Evil: The Final Chapter (2016) [MVO AMS]

Language : English

Default : Yes

Forced : No

Audio #1

ID : 2

Format : DTS

Format/Info : Digital Theater Systems

Format profile : MA / Core

Mode : 16

Format settings, Endianness : Big

Codec ID : A_DTS

Duration : 1h 46mn

Bit rate mode : Variable / Constant

Bit rate : 3 072 Kbps / 1 509 Kbps

Channel(s) : 8 channels / 6 channels

Channel positions : Front: L C R, Side: L R, Back: L R, LFE / Front: L C R, Side: L R, LFE

Sampling rate : 48.0 KHz

Frame rate : 93.750 fps (512 spf)

Bit depth : 16 bits

Compression mode : Lossless / Lossy

Stream size : 2.31 GiB (11%)

Title : AMS

Language : Russian

Default : Yes

Forced : No

Audio #2

ID : 3

Format : DTS

Format/Info : Digital Theater Systems

Format profile : MA / Core

Mode : 16

Format settings, Endianness : Big

Codec ID : A_DTS

Duration : 1h 46mn

Bit rate mode : Variable / Constant

Bit rate : 3 072 Kbps / 1 509 Kbps

Channel(s) : 8 channels / 6 channels

Channel positions : Front: L C R, Side: L R, Back: L R, LFE / Front: L C R, Side: L R, LFE

Sampling rate : 48.0 KHz

Frame rate : 93.750 fps (512 spf)

Bit depth : 16 bits

Compression mode : Lossless / Lossy

Stream size : 2.30 GiB (11%)

Title : Original

Language : English

Default : No

Forced : No

Text #1

ID : 4

Format : PGS

Muxing mode : zlib

Codec ID : S_HDMV/PGS

Codec ID/Info : Picture based subtitle format used on BDs/HD-DVDs

Duration : 1h 38mn

Bit rate : 5 674 bps

Count of elements : 1472

Stream size : 4.01 MiB (0%)

Title : Russian Subtitles

Language : Russian

Default : No

Forced : No

Text #2

ID : 5

Format : PGS

Muxing mode : zlib

Codec ID : S_HDMV/PGS

Codec ID/Info : Picture based subtitle format used on BDs/HD-DVDs

Duration : 1h 46mn

Bit rate : 6 134 bps

Count of elements : 1638

Stream size : 4.68 MiB (0%)

Title : English Subtitles

Language : English

Default : No

Forced : No
pb.wtf



Торрент не зареган: Не зарегистрирован ||
Добавлен: 2017-04-02 04:13
Скачано: 0 раз
% Раздел Тема Автор DL S | L
Фильмы [HD 720p, 1080p] (Хороший звук DUB, MVO) [ 5.55 GB ] Обитель зла: Последняя глава / Resident Evil: The Final Chapter [2016 BDRip-HEVC 1080p ] DUB [] bober100 Скачать
2 | 0
3D Фильмы [ 9.6 GB ] Обитель зла: Последняя глава 3Д / Resident Evil: The Final Chapter 3D [2016 BDRip 1080p] [Half OverUnder / Вертикальная анаморфная стереопара] DUB [] bober100 Скачать
1 | 0
Фильмы [HD 720p, 1080p] (Хороший звук DUB, MVO) [ 7.56 GB ] Обитель зла: Последняя глава / Resident Evil: The Final Chapter [2016 BDRip 1080p] - -Lexx- Скачать
2 | 0
Ultra HD (UHD: 2K, 4K, 8K) — видео сверхвысокой чёткости [ 53.79 GB ] Обитель зла: Последняя глава / Resident Evil: The Final Chapter [2016 UHD Blu-ray CEE 2160p] [] sheker187 Скачать
1 | 0
Ultra HD (UHD: 2K, 4K, 8K) — видео сверхвысокой чёткости [ 43.36 GB ] Обитель зла: Последняя глава / Resident Evil: The Final Chapter [2016 UHD BDRemux 2160p] DUB [] bober100 Скачать
2 | 0
Фильмы [HD 720p, 1080p] (Хороший звук DUB, MVO) [ 3.93 GB ] Обитель зла: Последняя глава / Resident Evil: The Final Chapter [2016 BDRip 720p] DUB [] bober100 Скачать
1 | 0
Фильмы (Blu-ray, BD-Remux, HDDVD) [ 17.53 GB ] Обитель зла: Последняя глава / Resident Evil: The Final Chapter [2016 BD Remux 1080p] DUB [] bober100 Скачать
1 | 0

28-11-2019 20:33  

Отключить всю рекламу на сайте

    Дорогой пользователь! Огромная просьба, поблагодарите релизера, оцените раздачу и оставьте свои комментарий, если Вы скачали Обитель зла: Последняя глава через торрент бесплатно! Внесите свою лепту в развитие PiratBit!
    Комментировать посты могут только пользователи прошедшие не сложную регистрацию
    Показать сообщения:    

    Обитель зла: Последняя глава через торрент
    Скачать бесплатно Обитель зла: Последняя глава
    Обитель зла: Последняя глава скачать торрент
    Обитель зла: Последняя глава смотреть онлайн
    Cкачать фильм Обитель зла: Последняя глава бесплатно
    Обитель зла: Последняя глава скачать торрент в хорошем качестве
    Обитель зла: Последняя глава смотреть онлайн бесплатно в хорошем качестве


    Вы не можете начинать темы
    Вы не можете отвечать на сообщения
    Вы не можете редактировать свои сообщения
    Вы не можете удалять свои сообщения
    Вы не можете голосовать в опросах
    Вы не можете прикреплять файлы к сообщениям
    Вы можете скачивать файлы