Ссылка на приватное зеркало нашего сайта всего за 1$. Внимание количество ограничено!!!

2 сезон

iTunes

1 сезон

1

iTunes

iTunes

iTunes

1 сезон

RePack

30

ИГРА 18+

pack

ВАЖНО

!!Акция!!

Alien_RageХит недели

RePack

MK11
pack

Забери бонус

RePack

jed

!!Акция!!

Alien_Rage

RePack

fifa19

RePack

Assassins Creed: Odyssey

RePack

NEED FOR SPEED™ PAYBACK

4 сезон

9 сезон

Бесстыжие 9 сезон

Все сериалы

все сериалы на PB.wtf

RePack

FAR CRY 5
  

Однажды на Диком Западе / Once Upon a Time in the West / C'era una volta il West (Серджио Леоне) [1968, драма, вестерн, BDRip 720p от еnvy / NNNB] MVO, DVO, AVO pb.wtf

Однажды на Диком Западе через торрент pb.wtf

Размер: 13.81 GB | Добавлен: 3 года 6 мес. назад | Торрент скачан:23 раза
Скачать  

02-04-2017 05:45 Однажды на Диком Западе Скачать торрент  

Информация о фильме

Русское название: Однажды на Диком Западе
Оригинальное название: Once Upon a Time in the West / C'era una volta il West
Год выхода: 1968
Жанр: драма, вестерн
Режиссер: Серджио Леоне
Выпущено: Италия, США
Продолжительность: 02:46:01
Перевод: Профессиональный (многоголосый закадровый), Профессиональный (двухголосый закадровый), Авторский одноголосый
В ролях: Чарльз Бронсон, Генри Фонда, Клаудия Кардинале, Джейсон Робардс, Габриэль Ферцетти, Паоло Стоппа, Вуди Строуд, Джек Элам, Кинэн Винн, Фрэнк Фолфф, Лайнел Стандер
Описание:

Молодая вдова отказывается продать ферму дельцу, задумавшему проложить по этой земле железную дорогу, и тогда он заказывает ее убийство, нанимая лучшего на Диком Западе стрелка. На защиту красавицы встают известный бандит Шайен и таинственный бродяга. Трое сильных мужчин сойдутся в смертельном хороводе, выхода из которого может и не быть...


Файл

Качество: BDRip 720p (исходник Blu-Ray Remux 1080p)
Формат: MKV
Видео: 1280x544, 8774 Кбит/сек, 23,976 кадр/сек, AVC, x264, High@L4.1, 2.35:1, 0.526 Бит/[Пиксели*Кадры]
Аудио 1: AC-3, 384 Кбит/сек, 6 канала(ов), 48,0 КГц - Многоголосый закадровый, R5, SomeWax / Русский
Аудио 2: AC-3, 384 Кбит/сек, 6 канала(ов), 48,0 КГц - Многоголосый закадровый, Video Biz / Русский
Аудио 3: AC-3, 192 Кбит/сек, 2 канала(ов), 48,0 КГц - Многоголосый закадровый, 5й канал, Петербург / Русский
Аудио 4: AC-3, 192 Кбит/сек, 2 канала(ов), 48,0 КГц - Многоголосый закадровый, НТВ+ / Русский
Аудио 5: AC-3, 192 Кбит/сек, 2 канала(ов), 48,0 КГц - Многоголосый закадровый, Селена Интернешнл (ОРТ) / Русский
Аудио 6: AC-3, 192 Кбит/сек, 2 канала(ов), 48,0 КГц - Многоголосый закадровый, СТС / Русский
Аудио 7: AC-3, 192 Кбит/сек, 2 канала(ов), 48,0 КГц - Двухголосый закадровый, Премьер Видео Фильм / Русский
Аудио 8: AC-3, 384 Кбит/сек, 6 канала(ов), 48,0 КГц - Одноголосый закадровый, Г.Либергал / Русский
Аудио 9: AC-3, 192 Кбит/сек, 2 канала(ов), 48,0 КГц - Одноголосый закадровый, Л.Володарский / Русский
Аудио 10: AC-3, 192 Кбит/сек, 2 канала(ов), 48,0 КГц - Одноголосый закадровый, В.Горчаков / Русский
Аудио 11: AC-3, 192 Кбит/сек, 2 канала(ов), 48,0 КГц - Одноголосый закадровый, Ю.Толбин / Русский
Аудио 12: AC-3, 448 Кбит/сек, 6 канала(ов), 48,0 КГц - Оригинал / Английский
Субтитры: Русские | Полные, Английские | Полные
Форсированные субтитры: Нет
Чаптеры (Главы): Есть






Автор Рипа: Группа:


Format : Matroska
Format version : Version 2
File size : 13.8 GiB
Duration : 2 h 46 min
Overall bit rate : 11.9 Mb/s
Movie name : Once Upon a Time in the West.(1968).BDRip.720p.[envy]
Encoded date : UTC 2017-04-01 08:39:04
Writing application : mkvmerge v5.8.0 ('No Sleep / Pillow') built on Sep 2 2012 15:37:04
Writing library : libebml v1.2.3 + libmatroska v1.3.0

Video
ID : 1
Format : AVC
Format/Info : Advanced Video Codec
Format profile : High@L4.1
Format settings, CABAC : Yes
Format settings, ReFrames : 10 frames
Muxing mode : Header stripping
Codec ID : V_MPEG4/ISO/AVC
Duration : 2 h 46 min
Bit rate : 8 774 kb/s
Width : 1 280 pixels
Height : 544 pixels
Display aspect ratio : 2.35:1
Frame rate mode : Constant
Frame rate : 23.976 (24000/1001) FPS
Color space : YUV
Chroma subsampling : 4:2:0
Bit depth : 8 bits
Scan type : Progressive
Bits/(Pixel*Frame) : 0.526
Stream size : 9.90 GiB (72%)
Title : Once Upon a Time in the West.(1968).BDRip.720p.[envy]
Writing library : x264 core 148 r2744 b97ae06
Encoding settings : cabac=1 / ref=10 / deblock=1:-3:-3 / analyse=0x3:0x133 / me=umh / subme=11 / psy=1 / psy_rd=1.00:0.00 / mixed_ref=1 / me_range=32 / chroma_me=1 / trellis=2 / 8x8dct=1 / cqm=0 / deadzone=21,11 / fast_pskip=0 / chroma_qp_offset=-2 / threads=12 / lookahead_threads=1 / sliced_threads=0 / nr=0 / decimate=1 / interlaced=0 / bluray_compat=0 / constrained_intra=0 / bframes=5 / b_pyramid=2 / b_adapt=2 / b_bias=0 / direct=3 / weightb=1 / open_gop=0 / weightp=2 / keyint=240 / keyint_min=23 / scenecut=40 / intra_refresh=0 / rc=2pass / mbtree=0 / bitrate=8774 / ratetol=2.0 / qcomp=0.60 / qpmin=0 / qpmax=69 / qpstep=4 / cplxblur=20.0 / qblur=0.5 / ip_ratio=1.40 / pb_ratio=1.30 / aq=1:0.65
Language : English
Default : Yes
Forced : No

Audio #1
ID : 2
Format : AC-3
Format/Info : Audio Coding 3
Format settings, Endianness : Big
Muxing mode : Header stripping
Codec ID : A_AC3
Duration : 2 h 46 min
Bit rate mode : Constant
Bit rate : 384 kb/s
Channel(s) : 6 channels
Channel positions : Front: L C R, Side: L R, LFE
Sampling rate : 48.0 kHz
Frame rate : 31.250 FPS (1536 spf)
Bit depth : 16 bits
Compression mode : Lossy
Stream size : 456 MiB (3%)
Title : MVO SomeWax
Language : Russian
Service kind : Complete Main
Default : Yes
Forced : No

Audio #2
ID : 3
Format : AC-3
Format/Info : Audio Coding 3
Format settings, Endianness : Big
Muxing mode : Header stripping
Codec ID : A_AC3
Duration : 2 h 46 min
Bit rate mode : Constant
Bit rate : 384 kb/s
Channel(s) : 6 channels
Channel positions : Front: L C R, Side: L R, LFE
Sampling rate : 48.0 kHz
Frame rate : 31.250 FPS (1536 spf)
Bit depth : 16 bits
Compression mode : Lossy
Stream size : 456 MiB (3%)
Title : MVO Video Biz
Language : Russian
Service kind : Complete Main
Default : No
Forced : No

Audio #3
ID : 4
Format : AC-3
Format/Info : Audio Coding 3
Format settings, Endianness : Big
Muxing mode : Header stripping
Codec ID : A_AC3
Duration : 2 h 46 min
Bit rate mode : Constant
Bit rate : 192 kb/s
Channel(s) : 2 channels
Channel positions : Front: L R
Sampling rate : 48.0 kHz
Frame rate : 31.250 FPS (1536 spf)
Bit depth : 16 bits
Compression mode : Lossy
Stream size : 228 MiB (2%)
Title : MVO 5 Канал Питербург
Language : Russian
Service kind : Complete Main
Default : No
Forced : No

Audio #4
ID : 5
Format : AC-3
Format/Info : Audio Coding 3
Format settings, Endianness : Big
Muxing mode : Header stripping
Codec ID : A_AC3
Duration : 2 h 46 min
Bit rate mode : Constant
Bit rate : 192 kb/s
Channel(s) : 2 channels
Channel positions : Front: L R
Sampling rate : 48.0 kHz
Frame rate : 31.250 FPS (1536 spf)
Bit depth : 16 bits
Compression mode : Lossy
Stream size : 228 MiB (2%)
Title : MVO НТВ+
Language : Russian
Service kind : Complete Main
Default : No
Forced : No

Audio #5
ID : 6
Format : AC-3
Format/Info : Audio Coding 3
Format settings, Endianness : Big
Muxing mode : Header stripping
Codec ID : A_AC3
Duration : 2 h 46 min
Bit rate mode : Constant
Bit rate : 192 kb/s
Channel(s) : 2 channels
Channel positions : Front: L R
Sampling rate : 48.0 kHz
Frame rate : 31.250 FPS (1536 spf)
Bit depth : 16 bits
Compression mode : Lossy
Stream size : 228 MiB (2%)
Title : MVO Селена Интернешнл (ОРТ)
Language : Russian
Service kind : Complete Main
Default : No
Forced : No

Audio #6
ID : 7
Format : AC-3
Format/Info : Audio Coding 3
Format settings, Endianness : Big
Muxing mode : Header stripping
Codec ID : A_AC3
Duration : 2 h 46 min
Bit rate mode : Constant
Bit rate : 192 kb/s
Channel(s) : 2 channels
Channel positions : Front: L R
Sampling rate : 48.0 kHz
Frame rate : 31.250 FPS (1536 spf)
Bit depth : 16 bits
Compression mode : Lossy
Stream size : 228 MiB (2%)
Title : MVO СТС
Language : Russian
Service kind : Complete Main
Default : No
Forced : No

Audio #7
ID : 8
Format : AC-3
Format/Info : Audio Coding 3
Format settings, Endianness : Big
Muxing mode : Header stripping
Codec ID : A_AC3
Duration : 2 h 46 min
Bit rate mode : Constant
Bit rate : 192 kb/s
Channel(s) : 2 channels
Channel positions : Front: L R
Sampling rate : 48.0 kHz
Frame rate : 31.250 FPS (1536 spf)
Bit depth : 16 bits
Compression mode : Lossy
Stream size : 228 MiB (2%)
Title : DVO Премьер Видео Фильм
Language : Russian
Service kind : Complete Main
Default : No
Forced : No

Audio #8
ID : 9
Format : AC-3
Format/Info : Audio Coding 3
Format settings, Endianness : Big
Muxing mode : Header stripping
Codec ID : A_AC3
Duration : 2 h 46 min
Bit rate mode : Constant
Bit rate : 384 kb/s
Channel(s) : 6 channels
Channel positions : Front: L C R, Side: L R, LFE
Sampling rate : 48.0 kHz
Frame rate : 31.250 FPS (1536 spf)
Bit depth : 16 bits
Compression mode : Lossy
Stream size : 456 MiB (3%)
Title : AVO Либергал
Language : Russian
Service kind : Complete Main
Default : No
Forced : No

Audio #9
ID : 10
Format : AC-3
Format/Info : Audio Coding 3
Format settings, Endianness : Big
Muxing mode : Header stripping
Codec ID : A_AC3
Duration : 2 h 46 min
Bit rate mode : Constant
Bit rate : 192 kb/s
Channel(s) : 2 channels
Channel positions : Front: L R
Sampling rate : 48.0 kHz
Frame rate : 31.250 FPS (1536 spf)
Bit depth : 16 bits
Compression mode : Lossy
Stream size : 228 MiB (2%)
Title : AVO Володарский
Language : Russian
Service kind : Complete Main
Default : No
Forced : No

Audio #10
ID : 11
Format : AC-3
Format/Info : Audio Coding 3
Format settings, Endianness : Big
Muxing mode : Header stripping
Codec ID : A_AC3
Duration : 2 h 46 min
Bit rate mode : Constant
Bit rate : 192 kb/s
Channel(s) : 2 channels
Channel positions : Front: L R
Sampling rate : 48.0 kHz
Frame rate : 31.250 FPS (1536 spf)
Bit depth : 16 bits
Compression mode : Lossy
Stream size : 228 MiB (2%)
Title : AVO Горчаков
Language : Russian
Service kind : Complete Main
Default : No
Forced : No

Audio #11
ID : 12
Format : AC-3
Format/Info : Audio Coding 3
Format settings, Endianness : Big
Muxing mode : Header stripping
Codec ID : A_AC3
Duration : 2 h 46 min
Bit rate mode : Constant
Bit rate : 192 kb/s
Channel(s) : 2 channels
Channel positions : Front: L R
Sampling rate : 48.0 kHz
Frame rate : 31.250 FPS (1536 spf)
Bit depth : 16 bits
Compression mode : Lossy
Stream size : 228 MiB (2%)
Title : AVO Толбин
Language : Russian
Service kind : Complete Main
Default : No
Forced : No

Audio #12
ID : 13
Format : AC-3
Format/Info : Audio Coding 3
Format settings, Endianness : Big
Muxing mode : Header stripping
Codec ID : A_AC3
Duration : 2 h 46 min
Bit rate mode : Constant
Bit rate : 448 kb/s
Channel(s) : 6 channels
Channel positions : Front: L C R, Side: L R, LFE
Sampling rate : 48.0 kHz
Frame rate : 31.250 FPS (1536 spf)
Bit depth : 16 bits
Compression mode : Lossy
Stream size : 532 MiB (4%)
Title : Eng
Language : English
Service kind : Complete Main
Default : No
Forced : No

Text #1
ID : 14
Format : UTF-8
Codec ID : S_TEXT/UTF8
Codec ID/Info : UTF-8 Plain Text
Title : Rus full
Language : Russian
Default : No
Forced : No

Text #2
ID : 15
Format : UTF-8
Codec ID : S_TEXT/UTF8
Codec ID/Info : UTF-8 Plain Text
Title : Eng full
Language : English
Default : No
Forced : No

Menu
00:00:00.000 : :00:00:00.000
00:10:24.415 : :00:10:24.415
00:15:12.078 : :00:15:12.078
00:20:40.030 : :00:20:40.030
00:24:39.311 : :00:24:39.311
00:33:13.033 : :00:33:13.033
00:42:40.850 : :00:42:40.850
00:46:48.347 : :00:46:48.347
00:54:12.332 : :00:54:12.332
00:56:51.408 : :00:56:51.408
00:59:00.871 : :00:59:00.871
01:06:53.051 : :01:06:53.051
01:12:20.461 : :01:12:20.461
01:20:02.798 : :01:20:02.798
01:23:05.314 : :01:23:05.314
01:29:33.618 : :01:29:33.618
01:35:21.257 : :01:35:21.257
01:38:48.047 : :01:38:48.047
01:43:13.813 : :01:43:13.813
01:48:07.606 : :01:48:07.606
01:50:37.881 : :01:50:37.881
01:55:01.186 : :01:55:01.186
01:58:54.335 : :01:58:54.335
02:04:41.224 : :02:04:41.224
02:10:41.667 : :02:10:41.667
02:15:36.253 : :02:15:36.253
02:23:07.662 : :02:23:07.662
02:26:03.588 : :02:26:03.588
02:29:33.965 : :02:29:33.965
02:32:00.445 : :02:32:00.445
02:37:29.690 : :02:37:29.690
02:41:31.056 : :02:41:31.056
02:44:04.585 : :02:44:04.585

pb.wtf



Скачать Однажды на Диком Западе через торрент http://img11.lostpic.net/2017/04/02/bf6d9cfb4444b107a60f3426630c4e5f.png Скачать фильм Однажды на Диком Западе через торрент бесплантно в хорошем качестве Описание:Молодая вдова отказывается продать ферму дельцу, задумавшему проложить по этой земле железную дорогу, и тогда он заказывает ее ... 8.5 10 6
Info! Золотая раздача, скачанное не засчитывается.
Торрент: Зарегистрирован [2017-04-02 05:45] · скачан: 23 раз
Статус: √ проверено
Размер: 13.81 GB
Как cкачать? Как скачать Однажды на Диком Западе через торрент | qTorrent

28-11-2019 20:33  

Отключить всю рекламу на сайте

    Дорогой пользователь! Огромная просьба, поблагодарите релизера, оцените раздачу и оставьте свои комментарий, если Вы скачали Однажды на Диком Западе через торрент бесплатно! Внесите свою лепту в развитие PiratBit!
    Комментировать посты могут только пользователи прошедшие не сложную регистрацию
    Показать сообщения:    

    Однажды на Диком Западе через торрент
    Скачать бесплатно Однажды на Диком Западе
    Однажды на Диком Западе скачать торрент
    Однажды на Диком Западе смотреть онлайн
    Cкачать фильм Однажды на Диком Западе бесплатно
    Однажды на Диком Западе скачать торрент в хорошем качестве
    Однажды на Диком Западе смотреть онлайн бесплатно в хорошем качестве


    Вы не можете начинать темы
    Вы не можете отвечать на сообщения
    Вы не можете редактировать свои сообщения
    Вы не можете удалять свои сообщения
    Вы не можете голосовать в опросах
    Вы не можете прикреплять файлы к сообщениям
    Вы можете скачивать файлы