Ссылка на приватное зеркало нашего сайта всего за 1$. Внимание количество ограничено!!!

2 сезон

iTunes

1 сезон

1

iTunes

iTunes

iTunes

1 сезон

RePack

30

ИГРА 18+

pack

ВАЖНО

!!Акция!!

Alien_RageХит недели

RePack

MK11
pack

Забери бонус

RePack

jed

!!Акция!!

Alien_Rage

RePack

fifa19

RePack

Assassins Creed: Odyssey

RePack

NEED FOR SPEED™ PAYBACK

4 сезон

9 сезон

Бесстыжие 9 сезон

Все сериалы

все сериалы на PB.wtf

RePack

FAR CRY 5
  

Уимблдон / Wimbledon (Ричард Лонкрэйн) [2004, мелодрама, комедия, спорт, BDRip 720p от еnvy / NNNB] DUB pb.wtf

Уимблдон через торрент pb.wtf

Раздают: 4 [ 0 KB/s ]
Размер: 4.37 GB | Добавлен: 3 года 6 мес. назад | Торрент скачан:40 раз
Скачать  

02-04-2017 06:13 Уимблдон Скачать торрент  

Информация о фильме

Русское название: Уимблдон
Оригинальное название: Wimbledon
Год выхода: 2004
Жанр: мелодрама, комедия, спорт
Режиссер: Ричард Лонкрэйн
Выпущено: Великобритания, Франция, США
Продолжительность: 01:37:47
Перевод: Дублированный
В ролях: Пол Беттани, Кирстен Данст, Сэм Нил, Джон Фавро, Бернард Хилл, Элинор Брон, Николай Костер-Вальдау, Остин Николс, Джеймс МакЭвой, Роберт Линдсей
Описание:

Питер - типичный неудачник, ему одинаково не везет как в личной жизни, так и на профессиональном поприще. Каким-то чудом горе-спортсмену, чья фамилия находится в самом конце мирового теннисного рейтинга, удается стать участником престижного Уимблдонского турнира. Там-то он и встречает Лиззи - звезду американского тенниса, в которую безумно влюбляется. Вдохновленный обретенной любовью и собственным мастерством на корте, Питер все выше поднимается по турнирной лестнице. Еще немного, и мечта всей его жизни - выиграть чемпионский кубок - вот-вот станет реальностью, если, конечно, удача снова не изменит ему...


Файл

Качество: BDRip 720p (исходник Blu-ray 1080p)
Формат: MKV
Видео: 1280x544, 5505 Кбит/сек, 23,976 кадр/сек, AVC, x264, High@L4.1, 2.35:1, 0.330 Бит/[Пиксели*Кадры]
Аудио 1: AC-3, 448 Кбит/сек, 6 канала(ов), 48,0 КГц - Дублированный / Русский
Аудио 2: AC-3, 448 Кбит/сек, 6 канала(ов), 48,0 КГц - Оригинал / Английский
Субтитры: Русские | Полные, Английские | Полные
Форсированные субтитры: Нет
Чаптеры (Главы): Есть






Автор Рипа: Группа:


Format : Matroska
Format version : Version 2
File size : 4.37 GiB
Duration : 1 h 37 min
Overall bit rate : 6 394 kb/s
Movie name : Wimbledon.(2004).BDRip.720p.[envy]
Encoded date : UTC 2017-04-02 05:53:25
Writing application : mkvmerge v5.8.0 ('No Sleep / Pillow') built on Sep 2 2012 15:37:04
Writing library : libebml v1.2.3 + libmatroska v1.3.0

Video
ID : 1
Format : AVC
Format/Info : Advanced Video Codec
Format profile : High@L4.1
Format settings, CABAC : Yes
Format settings, ReFrames : 10 frames
Muxing mode : Header stripping
Codec ID : V_MPEG4/ISO/AVC
Duration : 1 h 37 min
Bit rate : 5 505 kb/s
Width : 1 280 pixels
Height : 544 pixels
Display aspect ratio : 2.35:1
Frame rate mode : Constant
Frame rate : 23.976 (24000/1001) FPS
Color space : YUV
Chroma subsampling : 4:2:0
Bit depth : 8 bits
Scan type : Progressive
Bits/(Pixel*Frame) : 0.330
Stream size : 3.67 GiB (84%)
Title : Wimbledon.(2004).BDRip.720p.[envy]
Writing library : x264 core 148 r2744 b97ae06
Encoding settings : cabac=1 / ref=10 / deblock=1:-3:-3 / analyse=0x3:0x133 / me=umh / subme=11 / psy=1 / psy_rd=1.00:0.00 / mixed_ref=1 / me_range=32 / chroma_me=1 / trellis=2 / 8x8dct=1 / cqm=0 / deadzone=21,11 / fast_pskip=0 / chroma_qp_offset=-2 / threads=12 / lookahead_threads=1 / sliced_threads=0 / nr=0 / decimate=1 / interlaced=0 / bluray_compat=0 / constrained_intra=0 / bframes=5 / b_pyramid=2 / b_adapt=2 / b_bias=0 / direct=3 / weightb=1 / open_gop=0 / weightp=2 / keyint=240 / keyint_min=23 / scenecut=40 / intra_refresh=0 / rc=2pass / mbtree=0 / bitrate=5505 / ratetol=2.0 / qcomp=0.60 / qpmin=0 / qpmax=69 / qpstep=4 / cplxblur=20.0 / qblur=0.5 / ip_ratio=1.40 / pb_ratio=1.30 / aq=1:0.65
Language : English
Default : Yes
Forced : No

Audio #1
ID : 2
Format : AC-3
Format/Info : Audio Coding 3
Format settings, Endianness : Big
Muxing mode : Header stripping
Codec ID : A_AC3
Duration : 1 h 37 min
Bit rate mode : Constant
Bit rate : 448 kb/s
Channel(s) : 6 channels
Channel positions : Front: L C R, Side: L R, LFE
Sampling rate : 48.0 kHz
Frame rate : 31.250 FPS (1536 spf)
Bit depth : 16 bits
Compression mode : Lossy
Stream size : 313 MiB (7%)
Title : Dub
Language : Russian
Service kind : Complete Main
Default : Yes
Forced : No

Audio #2
ID : 3
Format : AC-3
Format/Info : Audio Coding 3
Format settings, Endianness : Big
Muxing mode : Header stripping
Codec ID : A_AC3
Duration : 1 h 37 min
Bit rate mode : Constant
Bit rate : 448 kb/s
Channel(s) : 6 channels
Channel positions : Front: L C R, Side: L R, LFE
Sampling rate : 48.0 kHz
Frame rate : 31.250 FPS (1536 spf)
Bit depth : 16 bits
Compression mode : Lossy
Stream size : 313 MiB (7%)
Title : Eng
Language : English
Service kind : Complete Main
Default : No
Forced : No

Text #1
ID : 4
Format : UTF-8
Codec ID : S_TEXT/UTF8
Codec ID/Info : UTF-8 Plain Text
Title : Rus full
Language : Russian
Default : No
Forced : No

Text #2
ID : 5
Format : UTF-8
Codec ID : S_TEXT/UTF8
Codec ID/Info : UTF-8 Plain Text
Title : Eng full SDH
Language : English
Default : No
Forced : No

Menu
00:00:00.000 : :Chapter 01
00:07:49.969 : :Chapter 02
00:12:41.427 : :Chapter 03
00:19:47.895 : :Chapter 04
00:25:30.362 : :Chapter 05
00:31:47.906 : :Chapter 06
00:40:24.422 : :Chapter 07
00:47:30.430 : :Chapter 08
00:53:37.672 : :Chapter 09
00:58:45.146 : :Chapter 10
01:05:40.227 : :Chapter 11
01:10:58.045 : :Chapter 12
01:16:36.883 : :Chapter 13
01:21:08.405 : :Chapter 14
01:28:01.359 : :Chapter 15
01:33:00.533 : :Chapter 16

pb.wtf



Скачать Уимблдон через торрент http://img11.lostpic.net/2017/03/30/97d53dd8f1ad24c7f4853571c5fc24dd.png Скачать фильм Уимблдон через торрент бесплантно в хорошем качестве Описание:Питер - ичный неудачник, ему одинаково не везет как в личной жизни, так и на профессиональном поприще. Каким-то чудом ... 5 10 1
Info! Золотая раздача, скачанное не засчитывается.
Торрент: Зарегистрирован [2017-04-02 06:13] · скачан: 40 раз
Статус: √ проверено
Размер: 4.37 GB
Как cкачать? Как скачать Уимблдон через торрент | qTorrent

% Раздел Тема Автор DL S | L
Фильмы [HD 720p, 1080p] (Хороший звук DUB, MVO) [ 7.75 GB ] Уимблдон / Wimbledon [2004 BDRip 1080p от еnvy / NNNB] DUB еnvy Скачать
5 | 0

28-11-2019 20:33  

Отключить всю рекламу на сайте

    Дорогой пользователь! Огромная просьба, поблагодарите релизера, оцените раздачу и оставьте свои комментарий, если Вы скачали Уимблдон через торрент бесплатно! Внесите свою лепту в развитие PiratBit!
    Комментировать посты могут только пользователи прошедшие не сложную регистрацию
    Показать сообщения:    

    Уимблдон через торрент
    Скачать бесплатно Уимблдон
    Уимблдон скачать торрент
    Уимблдон смотреть онлайн
    Cкачать фильм Уимблдон бесплатно
    Уимблдон скачать торрент в хорошем качестве
    Уимблдон смотреть онлайн бесплатно в хорошем качестве


    Вы не можете начинать темы
    Вы не можете отвечать на сообщения
    Вы не можете редактировать свои сообщения
    Вы не можете удалять свои сообщения
    Вы не можете голосовать в опросах
    Вы не можете прикреплять файлы к сообщениям
    Вы можете скачивать файлы