2 сезон

iTunes

1 сезон

1

iTunes

iTunes

iTunes

1 сезон

RePack

30

ИГРА 18+

pack

ВАЖНО

!!Акция!!

Alien_RageХит недели

RePack

MK11
pack

Забери бонус

RePack

jed

!!Акция!!

Alien_Rage

RePack

fifa19

RePack

Assassins Creed: Odyssey

RePack

NEED FOR SPEED™ PAYBACK

4 сезон

9 сезон

Бесстыжие 9 сезон

Все сериалы

все сериалы на PB.wtf

RePack

FAR CRY 5
  

Сон в летнюю ночь / A Midsummer Night's Dream (Майкл Хоффман) [1999, фэнтези, комедия, мелодрама, BDRip 720p by msltel] 3 x MVO pb.wtf

Сон в летнюю ночь через торрент pb.wtf

Размер: 3.57 GB | Добавлен: 3 года 6 мес. назад | Торрент скачан:85 раз
Скачать  

02-04-2017 07:46 Сон в летнюю ночь Скачать торрент  

Название: Сон в летнюю ночь
Оригинальное название: A Midsummer Night's Dream
Год выпуска: 1999
Страна: США, Великобритания, Италия
Жанр: фэнтези, комедия, мелодрама
Продолжительность: 02:00:59
Перевод: профессиональный многоголосый

Режиссёр: Майкл Хоффман

В ролях: Софи Марсо, Кевин Клайн, Мишель Пфайффер, Стэнли Туччи, Руперт Эверетт, Калиста Флокхарт, Доминик Уэст, Кристиан Бэйл, Анна Фрил, Дэвид Стрэтэйрн, Роджер Рис, Сэм Рокуэлл, Грегори Джбара, Билл Ирвин, Макс Райт, Бернард Хилл, Джон Сессионс, Дирдри Харрисон, Хезер Паризи, Паола Пессот, Валерио Исидоре

Описание: Когда две переплетённые парочки любовников, враждующая пара сказочных эльфов и любовное зелье очутились вместе в заколдованном, залитом лунным светом лесу, то получилась восхитительная смесь веселья и волшебства... Фильм по одноимённой комедии В. Шекспира.



Качество: BDRip 720p
Формат: MKV
Видео: MPEG-4 AVC, 3522 Kбит/с, 1280x542, 23,976 кадра/с
Аудио 1: русский, AC3, 192 kbps, 2 ch, 48 kHz [профессиональный многоголосый, Лазер видео]
Аудио 2: русский, AC3, 192 kbps, 2 ch, 48 kHz [профессиональный многоголосый, HTB+]
Аудио 3: русский, AC3, 128 kbps, 2 ch, 48 kHz [профессиональный многоголосый, т/к Культура]
Аудио 4: английский, AC3, 192 kbps, 2 ch, 48 kHz [оригинал]
Субтитры: английские
Имеются неименованные главы/чаптеры.
Общее
Уникальный идентификатор : 233675098337800366749341221777963820052 (0xAFCC2FD9A34AAFB89BAC5B4A417D2414)
Полное имя : D:\Video\Сон в летнюю ночь.1999.BDRip.720p by msltel.mkv
Формат : Matroska
Версия формата : Version 4 / Version 2
Размер файла : 3,57 Гбайт
Продолжительность : 2 ч. 0 м.
Общий поток : 4228 Кбит/сек
Название фильма : Rip by msltel
Дата кодирования : UTC 2017-04-02 05:01:12
Программа кодирования : mkvmerge v8.2.0 ('World of Adventure') 64bit
Библиотека кодирования : libebml v1.3.1 + libmatroska v1.4.2

Видео
Идентификатор : 1
Формат : AVC
Формат/Информация : Advanced Video Codec
Профиль формата : High@L4.1
Параметр CABAC формата : Да
Параметр ReFrames формата : 9 кадров
Идентификатор кодека : V_MPEG4/ISO/AVC
Продолжительность : 2 ч. 0 м.
Битрейт : 3522 Кбит/сек
Ширина : 1280 пикселей
Высота : 542 пикселя
Соотношение сторон : 2,35:1
Режим частоты кадров : Постоянный
Частота кадров : 23,976 (24000/1001) кадра/сек
Цветовое пространство : YUV
Субдискретизация насыщенности : 4:2:0
Битовая глубина : 8 бит
Тип развёртки : Прогрессивная
Бит/(Пиксели*Кадры) : 0.212
Размер потока : 2,98 Гбайт (83%)
Библиотека кодирования : x264 core 146 r2538 121396c
Настройки программы : cabac=1 / ref=9 / deblock=1:-3:-2 / analyse=0x3:0x113 / me=umh / subme=11 / psy=1 / psy_rd=1.00:0.15 / mixed_ref=1 / me_range=32 / chroma_me=1 / trellis=2 / 8x8dct=1 / cqm=0 / deadzone=21,11 / fast_pskip=0 / chroma_qp_offset=-3 / threads=6 / lookahead_threads=1 / sliced_threads=0 / nr=0 / decimate=1 / interlaced=0 / bluray_compat=0 / constrained_intra=0 / bframes=9 / b_pyramid=2 / b_adapt=2 / b_bias=0 / direct=1 / weightb=1 / open_gop=0 / weightp=2 / keyint=230 / keyint_min=23 / scenecut=40 / intra_refresh=0 / rc_lookahead=40 / rc=crf / mbtree=0 / crf=17.7 / qcomp=0.60 / qpmin=0 / qpmax=69 / qpstep=4 / vbv_maxrate=62500 / vbv_bufsize=78125 / crf_max=0.0 / nal_hrd=none / filler=0 / ip_ratio=1.40 / pb_ratio=1.30 / aq=1:1.00
Язык : English
Default : Да
Forced : Нет

Аудио #1
Идентификатор : 2
Формат : AC-3
Формат/Информация : Audio Coding 3
Параметр Endianness формата : Big
Идентификатор кодека : A_AC3
Продолжительность : 2 ч. 0 м.
Вид битрейта : Постоянный
Битрейт : 192 Кбит/сек
Каналы : 2 канала
Расположение каналов : Front: L R
Частота : 48,0 КГц
Частота кадров : 31,250 кадров/сек (1536 spf)
Битовая глубина : 16 бит
Метод сжатия : С потерями
Размер потока : 166 Мбайт (5%)
Заголовок : MVO (Лазер видео)
Язык : Russian
ServiceKind/String : Complete Main
Default : Да
Forced : Нет

Аудио #2
Идентификатор : 3
Формат : AC-3
Формат/Информация : Audio Coding 3
Параметр Endianness формата : Big
Идентификатор кодека : A_AC3
Продолжительность : 2 ч. 0 м.
Вид битрейта : Постоянный
Битрейт : 192 Кбит/сек
Каналы : 2 канала
Расположение каналов : Front: L R
Частота : 48,0 КГц
Частота кадров : 31,250 кадров/сек (1536 spf)
Битовая глубина : 16 бит
Метод сжатия : С потерями
Размер потока : 166 Мбайт (5%)
Заголовок : MVO (HTB+)
Язык : Russian
ServiceKind/String : Complete Main
Default : Нет
Forced : Нет

Аудио #3
Идентификатор : 4
Формат : AC-3
Формат/Информация : Audio Coding 3
Параметр Endianness формата : Big
Идентификатор кодека : A_AC3
Продолжительность : 2 ч. 0 м.
Вид битрейта : Постоянный
Битрейт : 128 Кбит/сек
Каналы : 2 канала
Расположение каналов : Front: L R
Частота : 48,0 КГц
Частота кадров : 31,250 кадров/сек (1536 spf)
Битовая глубина : 16 бит
Метод сжатия : С потерями
Размер потока : 111 Мбайт (3%)
Заголовок : MVO (т/к Культура)
Язык : Russian
ServiceKind/String : Complete Main
Default : Нет
Forced : Нет

Аудио #4
Идентификатор : 5
Формат : AC-3
Формат/Информация : Audio Coding 3
Параметр Endianness формата : Big
Идентификатор кодека : A_AC3
Продолжительность : 2 ч. 0 м.
Вид битрейта : Постоянный
Битрейт : 192 Кбит/сек
Каналы : 2 канала
Расположение каналов : Front: L R
Частота : 48,0 КГц
Частота кадров : 31,250 кадров/сек (1536 spf)
Битовая глубина : 16 бит
Метод сжатия : С потерями
Размер потока : 166 Мбайт (5%)
Заголовок : original
Язык : English
ServiceKind/String : Complete Main
Default : Нет
Forced : Нет

Текст
Идентификатор : 6
Формат : UTF-8
Идентификатор кодека : S_TEXT/UTF8
Идентификатор кодека/Информация : UTF-8 Plain Text
Продолжительность : 1 ч. 51 м.
Битрейт : 57 бит/сек
ElementCount : 1750
Размер потока : 47,0 Кбайт (0%)
Заголовок : английские
Язык : English
Default : Нет
Forced : Нет

Меню
00:00:00.000 : en:00:00:00.000
00:10:14.583 : en:00:10:14.583
00:23:34.375 : en:00:23:34.375
00:33:31.083 : en:00:33:31.083
00:41:43.500 : en:00:41:43.500
00:50:40.000 : en:00:50:40.000
01:03:29.792 : en:01:03:29.792
01:12:49.333 : en:01:12:49.333
01:22:08.917 : en:01:22:08.917
01:32:01.500 : en:01:32:01.500
01:35:46.709 : en:01:35:46.709
01:52:48.750 : en:01:52:48.750
01:55:03.875 : en:01:55:03.875
02:00:37.208 : en:02:00:37.208
pb.wtf



Скачать Сон в летнюю ночь через торрент http://hostpic.gq/img/2017-04/02/1myjxjxe3r7ch297stkv7qz40.jpg Скачать фильм Сон в летнюю ночь через торрент бесплантно в хорошем качестве Описание: Когда две переплетённые парочки любовников, враждующая пара сказочных эльфов и любовное зелье очутились вместе в заколдованном, ... 10 10 5
Info! Золотая раздача, скачанное не засчитывается.
Торрент: Зарегистрирован [2017-04-02 07:46] · скачан: 85 раз
Статус: √ проверено
Размер: 3.57 GB
Как cкачать? Как скачать Сон в летнюю ночь через торрент | qTorrent

28-11-2019 20:33  

Отключить всю рекламу на сайте

    Дорогой пользователь! Огромная просьба, поблагодарите релизера, оцените раздачу и оставьте свои комментарий, если Вы скачали Сон в летнюю ночь через торрент бесплатно! Внесите свою лепту в развитие PiratBit!
    Комментировать посты могут только пользователи прошедшие не сложную регистрацию
    Показать сообщения:    

    Сон в летнюю ночь через торрент
    Скачать бесплатно Сон в летнюю ночь
    Сон в летнюю ночь скачать торрент
    Сон в летнюю ночь смотреть онлайн
    Cкачать фильм Сон в летнюю ночь бесплатно
    Сон в летнюю ночь скачать торрент в хорошем качестве
    Сон в летнюю ночь смотреть онлайн бесплатно в хорошем качестве


    Вы не можете начинать темы
    Вы не можете отвечать на сообщения
    Вы не можете редактировать свои сообщения
    Вы не можете удалять свои сообщения
    Вы не можете голосовать в опросах
    Вы не можете прикреплять файлы к сообщениям
    Вы можете скачивать файлы