Ссылка на приватное зеркало нашего сайта всего за 1$. Внимание количество ограничено!!!

2 сезон

iTunes

1 сезон

1

2 сезон

2 сезон

iTunes

1 сезон

RePack

30

Новинка

ВАЖНО

ИГРА 18+

pack

RePack

MK11
pack

Забери бонус

RePack

jed

!!Акция!!

Alien_Rage

RePack

fifa19

RePack

Assassins Creed: Odyssey

RePack

NEED FOR SPEED™ PAYBACK

4 сезон

9 сезон

Бесстыжие 9 сезон

Все сериалы

все сериалы на PB.wtf

RePack

FAR CRY 5
  

Лучшие пончики / Superior Donuts / Сезон: 1 / Серии 1-13 из 13 (Джеймс Берроуз / James Burrows, Марк Сендроуски / Mark Cendrowski, Гейл Манкусо / Gail Mancuso) [2017, США, комедия, WEB-DLRip-AVC] MVO [BaibaKo] pb.wtf

Лучшие пончики через торрент pb.wtf

Размер: 5.23 GB | Добавлен: 3 года 6 мес. назад | Торрент скачан:19 раз
Скачать  

02-04-2017 11:47 Лучшие пончики Скачать торрент  

Лучшие пончики / Superior Donuts


  • Год выпуска: 2017
  • Страна: США
  • Жанр: комедия
  • Продолжительность: 00:21:01 (Серия)
  • Перевод: Профессиональный многоголосый [BaibaKo]
  • Режиссер: Джеймс Берроуз / James Burrows, Марк Сендроуски / Mark Cendrowski, Гейл Манкусо / Gail Mancuso
  • В ролях:

    Жермен Фаулер (Franco Wicks), Дэвид Кокнер (Carl «Tush» Tushinski), Маз Джобрани (Fawz), Анна Барышников (Maya), Кэти Сагал (Randy DeLuca), Джадд Хёрш (Arthur Przybyszewski), Дэриен Силлс-Эванс (James Jordan), Террелл Бэттл (Sweatpants), Эрик Эдельштейн (Officer Deckerd), Дэвид Паскуэзи (Lou), Озиома Акага (Nadine), Ella Jay Basco (Logan)


  • Главный персонаж больше не уверен в себе и берет на работу к себе в кондитерский отдел юного и воодушевленного темнокожего молодого человека. Совместно они пытаются поддерживать работу магазина, а также друг друга и собственных клиентов.
  • Рейтинг:



  • Качество: WEB-DLRip-AVC
  • Формат: :MPEG-4
  • Видео кодек: AVC
  • Аудио кодек: AC3
  • Видео: 1024x576 (16:9), 2000 kbps, 23,976 fps, 0,141 bpp
  • Аудио №1: русский / 5.1 / 48 kHz / 384 kbps / 16 bit |[BaibaKo]|
  • Аудио №2: английский / 5.1 / 48 kHz / 384 kbps / 16 bit
  • Релиз от: GEKADOL

    Внимание! Раздача ведётся путём добавления новых серий; при каждом добавлении создаётся новый торрент. Чтобы начать докачку новой серии, пользователям необходимо сделать следующее:
    (1) остановить скачивание,
    (2) удалить старый торрент у себя из клиента (старые серии удалять не надо),
    (3) скачать новый торрент и запустить его у себя в клиенте вместо старого, при этом указать клиенту путь в старую папку куда и должно происходить скачивание новых серий.
    Ваш клиент при этом должен произвести хеширование (проверку) старой папки (если не производит сам - помогите ему сделать это), и будет докачивать только те серии которых у вас ещё нет. Старые серии при этом не удаляются, а продолжают раздаваться!
    Eсли вы уже удалили старые серии, то предотвратить повторную закачку старых серий можно, отжав галочку в соответствующих местах при запуске нового торрента. По возможности, желательно не удалять старые серии как можно дольше чтобы релизёр не столько продолжал раздавать старые серии, а смог сконцентрироваться на новых.

    General
    Complete name : K:\Лучшие пончики (Superior Donuts)\Superior.Donuts.s01e01.WEB-DLRip-AVC.Rus.Eng.BaibaKo.tv.mp4
    Format : MPEG-4
    Format profile : Base Media
    Codec ID : isom (isom/iso2/avc1/mp41)
    File size : 418 MiB
    Duration : 21 min
    Overall bit rate : 2 782 kb/s
    Writing application : XviD4PSP 7.0.374 DAILY
    HDVideo : Yes
    encoding_info : MATROSKA / WEBM > MP4 Произвольный / H264 > X264 CBR 2000kbps HQ / AC3 > AC3 CBR 384kbps / AC3 > AC3 CBR 384kbps

    Video
    ID : 1
    Format : AVC
    Format/Info : Advanced Video Codec
    Format profile : High@L4.1
    Format settings, CABAC : Yes
    Format settings, ReFrames : 4 frames
    Codec ID : avc1
    Codec ID/Info : Advanced Video Coding
    Duration : 21 min
    Bit rate : 2 000 kb/s
    Width : 1 024 pixels
    Height : 576 pixels
    Display aspect ratio : 16:9
    Frame rate mode : Constant
    Frame rate : 23.976 (24000/1001) FPS
    Color space : YUV
    Chroma subsampling : 4:2:0
    Bit depth : 8 bits
    Scan type : Progressive
    Bits/(Pixel*Frame) : 0.141
    Stream size : 302 MiB (72%)
    Writing library : x264 core 148 r2762M 90a61ec
    Encoding settings : cabac=1 / ref=3 / deblock=1:-1:-1 / analyse=0x3:0x133 / me=hex / subme=7 / psy=1 / psy_rd=1.00:0.20 / mixed_ref=1 / me_range=16 / chroma_me=1 / trellis=1 / 8x8dct=1 / cqm=0 / deadzone=21,11 / fast_pskip=1 / chroma_qp_offset=-3 / threads=5 / lookahead_threads=1 / sliced_threads=0 / nr=0 / decimate=1 / interlaced=0 / bluray_compat=0 / constrained_intra=0 / bframes=3 / b_pyramid=2 / b_adapt=2 / b_bias=0 / direct=3 / weightb=1 / open_gop=0 / weightp=2 / keyint=230 / keyint_min=23 / scenecut=40 / intra_refresh=0 / rc_lookahead=40 / rc=cbr / mbtree=1 / bitrate=2000 / ratetol=1.0 / qcomp=0.60 / qpmin=0 / qpmax=69 / qpstep=4 / vbv_maxrate=2000 / vbv_bufsize=30000 / nal_hrd=none / filler=0 / ip_ratio=1.40 / aq=1:1.00

    Audio #1
    ID : 2
    Format : AC-3
    Format/Info : Audio Coding 3
    Mode extension : CM (complete main)
    Format settings, Endianness : Big
    Codec ID : ac-3
    Duration : 21 min
    Bit rate mode : Constant
    Bit rate : 384 kb/s
    Channel(s) : 6 channels
    Channel positions : Front: L C R, Side: L R, LFE
    Sampling rate : 48.0 kHz
    Frame rate : 31.250 FPS (1536 spf)
    Bit depth : 16 bits
    Compression mode : Lossy
    Stream size : 57.8 MiB (14%)
    Language : Russian
    Default : Yes
    Alternate group : 1

    Audio #2
    ID : 3
    Format : AC-3
    Format/Info : Audio Coding 3
    Mode extension : CM (complete main)
    Format settings, Endianness : Big
    Codec ID : ac-3
    Duration : 21 min
    Bit rate mode : Constant
    Bit rate : 384 kb/s
    Channel(s) : 6 channels
    Channel positions : Front: L C R, Side: L R, LFE
    Sampling rate : 48.0 kHz
    Frame rate : 31.250 FPS (1536 spf)
    Bit depth : 16 bits
    Compression mode : Lossy
    Stream size : 57.8 MiB (14%)
    Language : English
    Default : No
    Alternate group : 1



    Скриншоты:
    скриншот   скриншот   скриншот   скриншот   скриншот   скриншот   скриншот  
    скриншот  

    Раздача ведётся путём добавления новых серий. Добавлена 13 серия (11.05.2017).Просьба перекачать торрент файл.

    pb.wtf



  • Скачать Лучшие пончики через торрент http://pic1.kartinco.top/images/11/nintw.jpg Скачать фильм Лучшие пончики через торрент бесплантно в хорошем качестве qw.png Главный персонаж больше не уверен в себе и берет на работу к себе в кондитерский отдел юного и воодушевленного темнокожего ... 7.8 10 4
    Info! Золотая раздача, скачанное не засчитывается.
    Торрент: Зарегистрирован [2017-05-11 06:17] · скачан: 19 раз
    Статус: √ проверено
    Размер: 5.23 GB
    Как cкачать? Как скачать Лучшие пончики через торрент | qTorrent



    Последний раз редактировалось: GEKADOL (2017-05-11 06:16), всего редактировалось 4 раз(а)

    28-11-2019 20:33  

    Отключить всю рекламу на сайте

    12-04-2017 05:41 Лучшие пончики Скачать торрент  

    Ну надо же! Я думал они космосом ограничаться - ан нет!pb.wtf



    12-04-2017 06:56 Лучшие пончики Скачать торрент  

    spellscape писал(а):

    Ну надо же! Я думал они космосом ограничаться - ан нет!

    Прикольный сериальчик)pb.wtf



    19-04-2017 16:26 Лучшие пончики Скачать торрент  

    GEKADOL, Можно скорость,заранее благодаренpb.wtf



      Дорогой пользователь! Огромная просьба, поблагодарите релизера, оцените раздачу и оставьте свои комментарий, если Вы скачали Лучшие пончики через торрент бесплатно! Внесите свою лепту в развитие PiratBit!
      Комментировать посты могут только пользователи прошедшие не сложную регистрацию
      Показать сообщения:    

      Лучшие пончики через торрент
      Скачать бесплатно Лучшие пончики
      Лучшие пончики скачать торрент
      Лучшие пончики смотреть онлайн
      Cкачать фильм Лучшие пончики бесплатно
      Лучшие пончики скачать торрент в хорошем качестве
      Лучшие пончики смотреть онлайн бесплатно в хорошем качестве


      Вы не можете начинать темы
      Вы не можете отвечать на сообщения
      Вы не можете редактировать свои сообщения
      Вы не можете удалять свои сообщения
      Вы не можете голосовать в опросах
      Вы не можете прикреплять файлы к сообщениям
      Вы можете скачивать файлы