Ссылка на приватное зеркало нашего сайта всего за 1$. Внимание количество ограничено!!!

2 сезон

iTunes

1 сезон

1

2 сезон

2 сезон

iTunes

1 сезон

RePack

30

Новинка

ВАЖНО

ИГРА 18+

pack

RePack

MK11
pack

Забери бонус

RePack

jed

!!Акция!!

Alien_Rage

RePack

fifa19

RePack

Assassins Creed: Odyssey

RePack

NEED FOR SPEED™ PAYBACK

4 сезон

9 сезон

Бесстыжие 9 сезон

Все сериалы

все сериалы на PB.wtf

RePack

FAR CRY 5
  

Хэп и Леонард / Hap and Leonard / Сезон 1 / Серии 1-6 из 6 (Джим Микл, Ник Гомез, Морис Мэрэб) [2016, триллер, комедия, драма, WEB-DLRip] MVO [IdeaFilm] pb.wtf

Хэп и Леонард через торрент pb.wtf

Размер: 2.71 GB | Добавлен: 3 года 7 мес. назад | Торрент скачан:23 раза
Скачать  

02-04-2017 12:15 Хэп и Леонард Скачать торрент  

Хэп и Леонард / Hap and LeonardГод выпуска: 2016
Страна: США
Жанр: триллер, комедия, драма
Всего серий: 6
Продолжительность: 6 х ~00:45:00
Перевод: Любительский (многоголосый) - [IdeaFilm]
Субтитры: отсутствуют

Режиссер: Джим Микл, Ник Гомез, Морис Мэрэб

rating

В ролях:

Джеймс Пьюрфой, Майкл Кеннет Уильямс, Джимми Симпсон, Билл Сейдж, Кристина Хендрикс, Поллианна МакИнтош, Келвин Браун, Деджа Ди, Ивэн Гэмбл, Крэнстон Джонсон

Описание:

Сериал расскажет о необычной дружбе двух неудачников — Хэпа Коллинза и Леонарда Пайна. Хэп — белый работяга, который провел свою юность в тюрьме за то, что отказался воевать во Вьетнаме. Пайн — чернокожий открытый гей, ветеран Вьетнама, от которого отвернулась родня из-за его ориентации и проблем с управлением гневом.


Качество: WEB-DLRip
Формат: AVI
Видео кодек: XviD
Аудио кодек: AC3

Видео: 720x400 (1.80:1), 23.976 fps, XviD MPEG-4 ~1049 kbps avg, 0.15 bit/pixel
Аудио#1: Rus: 48 kHz, AC3 Dolby Digital, 3/2 (L,C,R,l,r) + LFE ch, ~384 kbps
скриншот   скриншот   скриншот   скриншот  

Общее
Полное имя : D:\IdeaFilm\Hap.and.Leonard.S01.WEB-DLRip\Hap.and.Leonard.S01E01.WEB-DLRip.IdeaFilm.avi
Формат : AVI
Формат/Информация : Audio Video Interleave
Размер файла : 460 Мбайт
Продолжительность : 44 м. 34 с.
Общий поток : 1443 Кбит/сек
Программа кодирования : Lavf57.41.100
Библиотека кодирования : VirtualDub build 35576/release

Видео
Идентификатор : 0
Формат : MPEG-4 Visual
Профиль формата : Advanced Simple@L4
Параметр BVOP формата : 2
Параметр QPel формата : Нет
Параметр GMC формата : Без точки перехода
Параметр матрицы формата : Default (H.263)
Режим смешивания : Сжатый битовый поток
Идентификатор кодека : XVID
Идентификатор кодека/Подсказка : XviD
Продолжительность : 44 м. 34 с.
Битрейт : 1049 Кбит/сек
Ширина : 720 пикселей
Высота : 400 пикселей
Соотношение сторон : 16:9
Частота кадров : 23,976 (24000/1001) кадра/сек
Цветовое пространство : YUV
Субдискретизация насыщенности : 4:2:0
Битовая глубина : 8 бит
Тип развёртки : Прогрессивная
Метод сжатия : С потерями
Бит/(Пиксели*Кадры) : 0.152
Размер потока : 334 Мбайт (73%)
Библиотека кодирования : XviD 67

Аудио
Идентификатор : 1
Формат : AC-3
Формат/Информация : Audio Coding 3
Параметр Endianness формата : Big
Идентификатор кодека : 2000
Продолжительность : 44 м. 34 с.
Вид битрейта : Постоянный
Битрейт : 384 Кбит/сек
Каналы : 6 каналов
Расположение каналов : Front: L C R, Side: L R, LFE
Частота : 48,0 КГц
Частота кадров : 31,250 кадров/сек (1536 spf)
Битовая глубина : 16 бит
Метод сжатия : С потерями
Размер потока : 122 Мбайт (27%)
Выравнивание : Соединение по промежуткам
Продолжительность промежутка : 42 мс. (1,00 видеокадр)
Время предзагрузки промежутка : 512 мс.
ServiceKind/String : Complete Main

pb.wtf



Скачать Хэп и Леонард через торрент http://s019.radikal.ru/i640/1704/52/2cc52754b5cc.png Скачать фильм Хэп и Леонард через торрент бесплантно в хорошем качестве Описание: Сериал расскажет о необычной дружбе двух неудачников — Хэпа Коллинза и Леонарда Пайна. Хэп — белый работяга, который провел свою ... 10 10 3
Торрент: Зарегистрирован [2017-04-02 12:15] · скачан: 23 раз
Статус: √ проверено
Размер: 2.71 GB
Как cкачать? Как скачать Хэп и Леонард через торрент | qTorrent

% Раздел Тема Автор DL S | L
Зарубежные сериалы [ 3.17 GB ] Хэп и Леонард / Hap and Leonard / Сезон: 3 / Серии: 1-6 из 6 [2018 WEBRip] [MVO] killermax2013 Скачать
1 | 0
Зарубежные сериалы [ 8.68 GB ] Хэп и Леонард / Hap and Leonard / Сезон: 3 / Серии: 1-6 из 6 [2018 WEB-DL 720p] MVO [NewStudio] bober100 Скачать
1 | 0
Зарубежные сериалы [ 6.68 GB ] Хэп и Леонард / Hap and Leonard / Сезон: 3 / Серии: 1-6 из 6 [2018 WEBRip 720p] [MVO] killermax2013 Скачать
1 | 0
Зарубежные сериалы [ 7.67 GB ] Хэп и Леонард / Hap and Leonard / Сезон: 3 / Серии: 1-6 из 6 [2018 WEB-DL 720p] MVO [AlexFilm] bober100 Скачать
1 | 0
Зарубежные сериалы [ 3.47 GB ] Хэп и Леонард / Hap and Leonard / Сезон: 3 / Серии: 1-6 из 6 [2018 WEB-DLRip] MVO [AlexFilm] bober100 Скачать
1 | 0
Зарубежные сериалы [ 3.16 GB ] Хэп и Леонард / Hap and Leonard / сезон 1 / серии 1-6 из 6 [2016 WEB-DLRip] MVO NewStudio Bibendi Скачать
1 | 0

28-11-2019 20:33  

Отключить всю рекламу на сайте

    Дорогой пользователь! Огромная просьба, поблагодарите релизера, оцените раздачу и оставьте свои комментарий, если Вы скачали Хэп и Леонард через торрент бесплатно! Внесите свою лепту в развитие PiratBit!
    Комментировать посты могут только пользователи прошедшие не сложную регистрацию
    Показать сообщения:    

    Хэп и Леонард через торрент
    Скачать бесплатно Хэп и Леонард
    Хэп и Леонард скачать торрент
    Хэп и Леонард смотреть онлайн
    Cкачать фильм Хэп и Леонард бесплатно
    Хэп и Леонард скачать торрент в хорошем качестве
    Хэп и Леонард смотреть онлайн бесплатно в хорошем качестве


    Вы не можете начинать темы
    Вы не можете отвечать на сообщения
    Вы не можете редактировать свои сообщения
    Вы не можете удалять свои сообщения
    Вы не можете голосовать в опросах
    Вы не можете прикреплять файлы к сообщениям
    Вы можете скачивать файлы