Ссылка на приватное зеркало нашего сайта всего за 1$. Внимание количество ограничено!!!

2 сезон

iTunes

1 сезон

1

iTunes

iTunes

iTunes

1 сезон

RePack

30

ИГРА 18+

pack

ВАЖНО

!!Акция!!

Alien_RageХит недели

RePack

MK11
pack

Забери бонус

RePack

jed

!!Акция!!

Alien_Rage

RePack

fifa19

RePack

Assassins Creed: Odyssey

RePack

NEED FOR SPEED™ PAYBACK

4 сезон

9 сезон

Бесстыжие 9 сезон

Все сериалы

все сериалы на PB.wtf

RePack

FAR CRY 5
  

Призрак Опера / 1 серия из 12 (Эмиль Никогосян) [2017, Комедия, SATRip] pb.wtf

Призрак Опера через торрент pb.wtf

Качают: 1 [ 0 KB/s ]
Размер: 381 MB | Добавлен: 3 года 6 мес. назад | Торрент скачан:339 раз
Скачать  

02-04-2017 14:01 Призрак Опера Скачать торрент  

Призрак Опера
Год выпуска: 2017
Страна: Россия
Жанр: Комедия
Всего серий: 12
Продолжительность: 1 x ~ 00:27:00
Субтитры: отсутствуют

Режиссер: Эмиль Никогосян



В ролях:

Гарик Харламов, Вячеслав Евлантьев, Илья Соболев, Инга Оболдина, Александр Скороход, Сергей Ершов, Ян Цапник, Василий Кортуков

Описание:

История дружбы оперативного работника полиции Леши и призрака легендарного мошенника Пашки Ветерка. Леша — молодой оперативник полиции, все полгода службы получающий от коллег мелкие поручения — поймать муху, разогреть чайник, отксерить уголовный кодекс. Как и все молодые специалисты, Леша жаждет серьезной работы — и убедив начальницу в том, что он вполне готов, получает свое первое дело. Ему предстоит раскрыть тайну смерти молодого человека, в котором Леша узнает Пашку Ветерка — легендарного мошенника, «кинувшего» когда-то Алексея на миллион рублей. В тот же вечер Леше является призрак Пашки: тому совершенно наплевать на свою смерть — ведь он одним глазком уже повидал райский сад, заполненный тремя сотнями девственниц. Одна беда — чтобы заработать пропуск в рай, Пашка должен вернуть Алексею долг в один миллион рублей. Авантюрист включает все свое мастерство: склоняет Алексея спорить с коллегами на деньги, просит его за вознаграждение друзей организовать себе пышные похороны, заставляет взять выигрышную бутылку кока-колы и даже вынуждает Лешу идти на битву экстрасенсов — но каждый раз все упирается в кристальную честность Алексея.

Качество: SATRip
Формат: AVI
Видео кодек: XviD
Аудио кодек: MP3

Видео: 720x400 (1.80:1), 25 fps, XviD build 50 ~1800 kbps avg, 0.25 bit/pixel
Аудио#1: 48 kHz, MPEG Layer 3, 2 ch, ~128.00 kbps avg
скриншот   скриншот   скриншот   скриншот  

Общее
Полное имя : D:\Prizrak.Opera\Prizrak.Opera.01.SATRip.avi
Формат : AVI
Формат/Информация : Audio Video Interleave
Размер файла : 381 Мбайт
Продолжительность : 27 м. 28 с.
Общий поток : 1938 Кбит/сек
Программа кодирования : VirtualDubMod 1.5.10.3 | www.virtualdub-fr.org || (build 2550/release)
Библиотека кодирования : VirtualDubMod build 2550/release

Видео
Идентификатор : 0
Формат : MPEG-4 Visual
Профиль формата : Advanced Simple@L5
Параметр BVOP формата : 2
Параметр QPel формата : Нет
Параметр GMC формата : Без точки перехода
Параметр матрицы формата : Default (H.263)
Идентификатор кодека : XVID
Идентификатор кодека/Подсказка : XviD
Продолжительность : 27 м. 28 с.
Битрейт : 1800 Кбит/сек
Ширина : 720 пикселей
Высота : 400 пикселей
Соотношение сторон : 16:9
Частота кадров : 25,000 кадров/сек
Цветовое пространство : YUV
Субдискретизация насыщенности : 4:2:0
Битовая глубина : 8 бит
Тип развёртки : Прогрессивная
Метод сжатия : С потерями
Бит/(Пиксели*Кадры) : 0.250
Размер потока : 354 Мбайт (93%)
Библиотека кодирования : XviD 1.2.1 (UTC 2008-12-04)

Аудио
Идентификатор : 1
Формат : MPEG Audio
Версия формата : Version 1
Профиль формата : Layer 3
Режим : Joint stereo
Идентификатор кодека : 55
Идентификатор кодека/Подсказка : MP3
Продолжительность : 27 м. 28 с.
Вид битрейта : Постоянный
Битрейт : 128 Кбит/сек
Каналы : 2 канала
Частота : 48,0 КГц
Метод сжатия : С потерями
Размер потока : 25,2 Мбайт (7%)
Выравнивание : Соединение по промежуткам
Продолжительность промежутка : 40 мс. (1,00 видеокадр)
Время предзагрузки промежутка : 504 мс.
Библиотека кодирования : LAME3.99r
Настройки программы : -m j -V 4 -q 9 -lowpass 17 -b 128

Внимание! Раздача ведётся путём добавления новых серий. При каждом добавлении создаётся новый торрент.
Чтобы начать докачку новой серии, пользователям необходимо сделать следующее:
1. Остановить скачивание.
2. Удалить старый торрент у себя из клиента (старые серии удалять не надо).
3. Скачать новый торрент и запустить его у себя в клиенте вместо старого, при этом указать клиенту путь в старую папку куда и должно происходить скачивание новых серий. Ваш клиент при этом должен произвести хеширование (проверку) старой папки и будет докачивать только те серии, которых у вас ещё нет. Старые серии при этом не удаляются, а продолжают раздаваться! Eсли вы уже удалили старые серии, то предотвратить повторную закачку старых серий можно, отжав галочку в соответствующих местах при запуске нового торрента.
pb.wtf



Скачать Призрак Опера через торрент http://s42.radikal.ru/i096/1704/e8/85003a5805a3.jpg Скачать фильм Призрак Опера через торрент бесплантно в хорошем качестве Описание: История дружбы оперативного работника полиции Леши и призрака легендарного мошенника Пашки Ветерка. Леша — молодой оперативник ... 9.3 10 12
Торрент: Зарегистрирован [2017-04-02 14:01] · скачан: 339 раз
Статус: √ проверено
Размер: 381 MB
Как cкачать? Как скачать Призрак Опера через торрент | qTorrent

28-11-2019 20:33  

Отключить всю рекламу на сайте

22-04-2017 15:35 Призрак Опера Скачать торрент  

они чё одну серию в пол года выпускают?pb.wtf



22-04-2017 18:35 Призрак Опера Скачать торрент  

Выходит сериал по воскресеньям и по одной серии, но не факт что будет!!!
Сериал наберет 75% Да и будет продолжение... https://www.kinopoisk.ru/special/tv3-fantom/
pb.wtf



15-05-2017 06:48 Призрак Опера Скачать торрент  

pb.wtf



18-03-2018 14:10 Призрак Опера Скачать торрент  

Прикольный сериал мог бы получиться почему бы и не продолжить его снимать или выдавать в эфир:)))Чем эти амерокосовские комедии где нет не малейшего комедийного момента кроме извращёнки:)pb.wtf



    Дорогой пользователь! Огромная просьба, поблагодарите релизера, оцените раздачу и оставьте свои комментарий, если Вы скачали Призрак Опера через торрент бесплатно! Внесите свою лепту в развитие PiratBit!
    Комментировать посты могут только пользователи прошедшие не сложную регистрацию
    Показать сообщения:    

    Призрак Опера через торрент
    Скачать бесплатно Призрак Опера
    Призрак Опера скачать торрент
    Призрак Опера смотреть онлайн
    Cкачать фильм Призрак Опера бесплатно
    Призрак Опера скачать торрент в хорошем качестве
    Призрак Опера смотреть онлайн бесплатно в хорошем качестве


    Вы не можете начинать темы
    Вы не можете отвечать на сообщения
    Вы не можете редактировать свои сообщения
    Вы не можете удалять свои сообщения
    Вы не можете голосовать в опросах
    Вы не можете прикреплять файлы к сообщениям
    Вы можете скачивать файлы