Ссылка на приватное зеркало нашего сайта всего за 1$. Внимание количество ограничено!!!

2 сезон

iTunes

1 сезон

1

iTunes

iTunes

iTunes

1 сезон

RePack

30

ИГРА 18+

pack

ВАЖНО

!!Акция!!

Alien_RageХит недели

RePack

MK11
pack

Забери бонус

RePack

jed

!!Акция!!

Alien_Rage

RePack

fifa19

RePack

Assassins Creed: Odyssey

RePack

NEED FOR SPEED™ PAYBACK

4 сезон

9 сезон

Бесстыжие 9 сезон

Все сериалы

все сериалы на PB.wtf

RePack

FAR CRY 5
  

2+1 / Demain tout commence (Хьюго Желен) [2016, комедия, драма, семейный, BDRip 720p] DUB [Чистый звук] pb.wtf

2+1 через торрент pb.wtf

Размер: 4.6 GB | Добавлен: 3 года 6 мес. назад | Торрент скачан:647 раз
Скачать  

02-04-2017 18:27 2+1 Скачать торрент  

2+1 / Demain tout commence
Год выпуска: 2016
Страна: Франция, Великобритания
Жанр: комедия, драма, семейный
Продолжительность: 01:58:00
Перевод: Дубляж - Чистый звук
Субтитры: отсутствуют

Режиссер: Хьюго Желен

rating

В ролях:

Омар Си, Клеманс Поэзи, Антуан Бертран, Эшли Уолтерс, Глория Колстон, Клементин Селарье, Анна Коттис, Ральф фон Блюменталь, Бен Хоумвуд

Описание:

Жизнь главного героя была легка и беззаботна ровно до тех пор, пока одна из его бывших не подкинула ему грудного ребёнка. Решив, что такая проблема ему не нужна, он поехал искать мать малышки Глории. Но все сложилось иначе…

Качество: BDRip 720p
Формат: MKV
Видео кодек: H.264
Аудио кодек: AC3

Видео: 1280x536p (2.40:1), 23.976 fps, AVC MPEG-4 (H.264), High@L4.1 ~5025 kbps, 0.307 bit/pixel
Аудио#1: Русский: 48 kHz, AC3 Dolby Digital, 2 ch, ~448 kbps [Профессиональный (полное дублирование)]

скриншот   скриншот   скриншот   скриншот  

Формат : Matroska
Версия формата : Version 4 / Version 2
Размер файла : 4,60 Гбайт
Продолжительность : 1 ч. 58 м.
Общий поток : 5473 Kбит/сек
Дата кодирования : UTC 2017-03-01 11:25:57
Программа кодирования : mkvmerge v10.0.0 ('To Drown In You') 64bit
Библиотека кодирования : libebml v1.3.4 + libmatroska v1.4.5

Видео
Идентификатор : 1
Формат : AVC
Формат/Информация : Advanced Video Codec
Профиль формата : High@L4.1
Параметр CABAC формата : Да
Параметр ReFrames формата : 5 кадров
Идентификатор кодека : V_MPEG4/ISO/AVC
Продолжительность : 1 ч. 58 м.
Битрейт : 5025 Кбит/сек
Ширина : 1280 пикселей
Высота : 536 пикселей
Соотношение сторон : 2,40:1
Режим частоты кадров : Постоянный
Частота кадров : 23,976 кадра/сек
Цветовое пространство : YUV
Субдискретизация насыщенности : 4:2:0
Битовая глубина : 8 бит
Тип развёртки : Прогрессивная
Бит/(Пиксели*Кадры) : 0.307
Размер потока : 4,23 Гбайт (92%)
Библиотека кодирования : x264 core 148 r2744 b97ae06
Настройки программы : cabac=1 / ref=5 / deblock=1:0:0 / analyse=0x3:0x133 / me=umh / subme=7 / psy=1 / psy_rd=1.00:0.00 / mixed_ref=1 / me_range=16 / chroma_me=1 / trellis=1 / 8x8dct=1 / cqm=0 / deadzone=21,11 / fast_pskip=0 / chroma_qp_offset=-2 / threads=24 / lookahead_threads=4 / sliced_threads=0 / nr=0 / decimate=1 / interlaced=0 / bluray_compat=0 / constrained_intra=0 / bframes=3 / b_pyramid=2 / b_adapt=1 / b_bias=0 / direct=1 / weightb=1 / open_gop=0 / weightp=2 / keyint=250 / keyint_min=23 / scenecut=40 / intra_refresh=0 / rc_lookahead=40 / rc=2pass / mbtree=1 / bitrate=5025 / ratetol=1.0 / qcomp=0.60 / qpmin=0 / qpmax=69 / qpstep=4 / cplxblur=20.0 / qblur=0.5 / ip_ratio=1.40 / aq=1:1.00
Язык : English
Default : Да
Forced : Нет

Аудио
Идентификатор : 2
Формат : AC-3
Формат/Информация : Audio Coding 3
Расширение режима : CM (complete main)
Параметр Endianness формата : Big
Идентификатор кодека : A_AC3
Продолжительность : 1 ч. 58 м.
Вид битрейта : Постоянный
Битрейт : 448 Кбит/сек
Каналы : 2 каналов
Расположение каналов : Front: L R
Частота : 48,0 КГц
Частота кадров : 31,250 кадров/сек (1536 spf)
Битовая глубина : 16 бит
Метод сжатия : С потерями
Размер потока : 380 Мбайт (8%)
Язык : Russian
Default : Да
Forced : Нет

pb.wtf



Скачать 2+1 через торрент http://s013.radikal.ru/i323/1704/96/631042666453.jpg Скачать фильм 2+1 через торрент бесплантно в хорошем качестве Описание: Жизнь главного героя была легка и беззаботна ровно до тех пор, пока одна из его бывших не подкинула ему грудного ребёнка. Решив, ... 10 10 13
Info! Золотая раздача, скачанное не засчитывается.
Торрент: Зарегистрирован [2017-04-02 18:27] · скачан: 647 раз
Статус: T временная
Размер: 4.6 GB
Как cкачать? Как скачать 2+1 через торрент | qTorrent

% Раздел Тема Автор DL S | L
Фильмы 2016 [DVDrip, WEB-DLRip, HDrip] (DUB, MVO) [ 1.41 GB ] 2+1 / Demain tout commence [2016 BDRip] MVO bober100 Скачать
1 | 0
Фильмы 2016 [DVDrip, WEB-DLRip, HDrip] (DUB, MVO) [ 2.18 GB ] 2+1 / Demain tout commence [2016 BDRip] многоголосый [] Twi7ter Скачать
1 | 0
Фильмы [HD 720p, 1080p] (Хороший звук DUB, MVO) [ 7.53 GB ] 2+1 / Demain tout commence [2016 BDRip 1080p] MVO bober100 Скачать
1 | 0
Фильмы 2016 [DVDrip, WEB-DLRip, HDrip] (DUB, MVO) [ 1.46 GB ] 2+1 / Demain tout commence [2016 BDRip] многоголосый [] Twi7ter Скачать
2 | 0
Фильмы 2016 [DVDrip, WEB-DLRip, HDrip] (DUB, MVO) [ 1.45 GB ] 2+1 / Demain tout commence [2016 HDRip-AVC] MVO [] - ExKinoRay Enigma2010 Скачать
1 | 0
T Релизы по Парсеру [Игры, Сериалы и Фильмы и другое...] [ 6.09 GB ] 2+1 / Demain tout commence [2016 BDRip 720p] MVO -Lexx- Скачать
2 | 0
Фильмы 2016 [DVDrip, WEB-DLRip, HDrip] (DUB, MVO) [ 2.05 GB ] 2+1 / Demain tout commence [2016 HDRip] Профессиональное Ворон Скачать
1 | 0

28-11-2019 20:33  

Отключить всю рекламу на сайте

    Дорогой пользователь! Огромная просьба, поблагодарите релизера, оцените раздачу и оставьте свои комментарий, если Вы скачали 2+1 через торрент бесплатно! Внесите свою лепту в развитие PiratBit!
    Комментировать посты могут только пользователи прошедшие не сложную регистрацию
    Показать сообщения:    

    2+1 через торрент
    Скачать бесплатно 2+1
    2+1 скачать торрент
    2+1 смотреть онлайн
    Cкачать фильм 2+1 бесплатно
    2+1 скачать торрент в хорошем качестве
    2+1 смотреть онлайн бесплатно в хорошем качестве


    Вы не можете начинать темы
    Вы не можете отвечать на сообщения
    Вы не можете редактировать свои сообщения
    Вы не можете удалять свои сообщения
    Вы не можете голосовать в опросах
    Вы не можете прикреплять файлы к сообщениям
    Вы можете скачивать файлы