2 сезон

iTunes

MVO

1

2 сезон

iTunes

iTunes

1 сезон

RePack

30

Новинка

ВАЖНО

ИГРА 18+

pack

RePack

MK11
pack

Легкие деньги

RePack

jed

RePack

fifa19

RePack

RDR2

RePack

NEED FOR SPEED™ PAYBACK

4 сезон

9 сезон

Бесстыжие 9 сезон

Все сериалы

все сериалы на PB.wtf

RePack

FAR CRY 5

Anonymous, добрый вечер, мы не успеваем собрать деньги на оплату серверов за декабрь и январь, помогите нам пожалуйста в это трудное время. В качестве благодарности мы отключим Вам всю рекламу на сайте (укажите свой ник в строку Ваше имя)!

×
  
Magnet ссылка

Институт / The Institute (Джеймс Франко, Памела Романовски) [2017 г., триллер, HDRip, Любительский (многоголосый)[Синема УС]] pb.wtf

Институт через торрент pb.wtf

Размер: 1.46 GB | Добавлен: 3 года 9 мес. назад | Торрент скачан:288 раз
Скачать  

03-04-2017 03:48 Институт Скачать торрент  

Институт / The Institute
Год выпуска: 2017
Страна: США
Жанр: триллер
Продолжительность: 01:39:10
Перевод: Любительский (многоголосый)[Синема УС]
Субтитры: нет

Режиссер: Джеймс Франко, Памела Романовски

rating

В ролях: Джеймс Франко, Элли Галлерани, Тим Блейк Нельсон, Лори Сингер, Винсент Альвас, Памела Андерсон, Кармен Ардженциано, Лорен Б. Мосли, Зои Сайдел, Мелисса Болона

Описание: Балтимор, XIX век. Изабель Портер глубоко опечалена ранней смертью родителей. Чтобы отвлечься от грустных мыслей, девушка записывается добровольцем в институт Розвуд. А там творится совершенное непотребство — жестокие псевдонаучные эксперименты по промывке мозгов, модификации личности и управлению сознанием. Изабель встаёт перед жёстким выбором — бежать или остаться в этом кошмарном месте навсегда.

Качество: HDRip
Формат: AVI
Видео кодек: XviD
Аудио кодек: AC3
Видео: 720x400 (1.80:1), 23.976 fps, XviD build 50 ~1697 kbps avg, 0.25 bit/pixel
Аудио: 48 kHz, AC3 Dolby Digital, 2/0 (L,R) ch, ~384 kbps



General
Complete name : H:\релизы.торрентфайл\The.Institute.2017.P.HDRip.14OOMB_KOSHARA.avi
Format : AVI
Format/Info : Audio Video Interleave
File size : 1.46 GiB
Duration : 1h 39mn
Overall bit rate : 2 091 Kbps
Writing application : VirtualDubMod 1.5.10.2 (build 2540/release)
Writing library : VirtualDubMod build 2540/release

Video
ID : 0
Format : MPEG-4 Visual
Format profile : Advanced Simple@L5
Format settings, BVOP : 2
Format settings, QPel : No
Format settings, GMC : No warppoints
Format settings, Matrix : Default (MPEG)
Codec ID : XVID
Codec ID/Hint : XviD
Duration : 1h 39mn
Bit rate : 1 698 Kbps
Width : 720 pixels
Height : 400 pixels
Display aspect ratio : 16:9
Frame rate : 23.976 fps
Color space : YUV
Chroma subsampling : 4:2:0
Bit depth : 8 bits
Scan type : Progressive
Compression mode : Lossy
Bits/(Pixel*Frame) : 0.246
Stream size : 1.19 GiB (81%)
Writing library : XviD 1.2.1 (UTC 2008-12-04)

Audio
ID : 1
Format : AC-3
Format/Info : Audio Coding 3
Mode extension : CM (complete main)
Format settings, Endianness : Big
Codec ID : 2000
Duration : 1h 39mn
Bit rate mode : Constant
Bit rate : 384 Kbps
Channel(s) : 2 channels
Channel positions : Front: L R
Sampling rate : 48.0 KHz
Bit depth : 16 bits
Compression mode : Lossy
Stream size : 275 MiB (18%)
Alignment : Split accross interleaves
Interleave, duration : 42 ms (1.00 video frame)
Interleave, preload duration : 500 ms

pb.wtf



Скачать Институт через торрент http://pic1.kartinco.top/images/11/uhrij.jpg Скачать фильм Институт через торрент бесплантно в хорошем качестве Описание: Балтимор, XIX век. Изабель Портер глубоко опечалена ранней смертью родителей. Чтобы отвлечься от грустных мыслей, девушка ... 10 10 5
Торрент: Зарегистрирован [2017-04-03 03:48] · скачан: 288 раз
Статус: T временная
Размер: 1.46 GB
Как cкачать? Как скачать Институт через торрент | UTorrent

% Раздел Тема Автор DL S | L
Порно фильмы HD [ 31.28 GB ] Русский Институт :Потаскушка / Russian Institute : The Hussy [2018 Feature Anal DP Threesome Couples HD 2160] bashai5 Скачать
1 | 0
Скрытые камеры [ 1.98 GB ] Скрытая камера в женском туалете института 2 / Hidden camera in the womens toilet of the institute-2 [2016 Peeing Voyeur CamRip 1080p] Скорпион1976 Скачать
1 | 1
Фильмы 2017 [DVDrip, WEB-DLRip, HDrip] (DUB, MVO) [ 1.42 GB ] Институт Роузвуд / The Institute [2017 BDRip] - Twi7ter Скачать
1 | 0
Фильмы 2017 [DVDrip, WEB-DLRip, HDrip] (DUB, MVO) [ 2.56 GB ] Институт Роузвуд / The Institute [2017 BDRip-AVC] bober100 Скачать
1 | 0
Фильмы (Blu-ray, BD-Remux, HDDVD) [ 19.39 GB ] Институт Роузвуд / The Institute [2017 BD Remux 1080p] bober100 Скачать
1 | 0
Фильмы [HD 720p, 1080p] (Хороший звук DUB, MVO) [ 6.35 GB ] Институт Роузвуд / The Institute [2017 BDRip 720p] bober100 Скачать
1 | 0
Фильмы 2017 [DVDrip, WEB-DLRip, HDrip] (DUB, MVO) [ 1.42 GB ] Институт Роузвуд / The Institute [2017 BDRip] bober100 Скачать
2 | 0

28-11-2019 20:33  

Отключить всю рекламу на сайте

03-04-2017 05:34 Институт Скачать торрент  

Изабель встаёт перед жёстким выбором — бежать или остаться в этом кошмарном месте навсегда. выбор же очевиден, не? если только она не мазахистка)pb.wtf



05-04-2017 15:48 Институт Скачать торрент  

А что в 19 веке уже "мозги промывали"? И "сознанием управляли"?pb.wtf



    Дорогой пользователь! Огромная просьба, поблагодарите релизера, оцените раздачу и оставьте свои комментарий, если Вы скачали Институт через торрент бесплатно! Внесите свою лепту в развитие PiratBit!
    Комментировать посты могут только пользователи прошедшие не сложную регистрацию
    Показать сообщения:    

    Институт через торрент
    Скачать бесплатно Институт
    Институт скачать торрент
    Институт смотреть онлайн
    Cкачать фильм Институт бесплатно
    Институт скачать торрент в хорошем качестве
    Институт смотреть онлайн бесплатно в хорошем качестве


    Вы не можете начинать темы
    Вы не можете отвечать на сообщения
    Вы не можете редактировать свои сообщения
    Вы не можете удалять свои сообщения
    Вы не можете голосовать в опросах
    Вы не можете прикреплять файлы к сообщениям
    Вы можете скачивать файлы