Ссылка на приватное зеркало нашего сайта всего за 1$. Внимание количество ограничено!!!

2 сезон

iTunes

1 сезон

1

iTunes

iTunes

iTunes

1 сезон

RePack

30

ИГРА 18+

pack

ВАЖНО

!!Акция!!

Alien_RageХит недели

RePack

MK11
pack

Забери бонус

RePack

jed

!!Акция!!

Alien_Rage

RePack

fifa19

RePack

Assassins Creed: Odyssey

RePack

NEED FOR SPEED™ PAYBACK

4 сезон

9 сезон

Бесстыжие 9 сезон

Все сериалы

все сериалы на PB.wtf

RePack

FAR CRY 5
  

Спасти мистера Бэнкса / Saving Mr. Banks (Джон Ли Хэнкок) [2013, драма, история, биография, музыка, BDRip 720p by msltel] DUB, MVO, AVO pb.wtf

Спасти мистера Бэнкса через торрент pb.wtf

Размер: 5.22 GB | Добавлен: 3 года 6 мес. назад | Торрент скачан:85 раз
Скачать  

03-04-2017 09:59 Спасти мистера Бэнкса Скачать торрент  

Название: Спасти мистера Бэнкса
Оригинальное название: Saving Mr. Banks
Год выпуска: 2013
Страна: США, Великобритания, Австралия
Жанр: драма, история, биография, музыка
Продолжительность: 02:05:40
Перевод: дублированный, профессиональный многоголосый, авторский

Режиссёр: Джон Ли Хэнкок

В ролях: Эмма Томпсон, Том Хэнкс, Пол Джаматти, Джейсон Шварцман, Колин Фаррелл, Энни Роуз Бакли, Рут Уилсон, Брэдли Уитфорд, Б.Дж. Новак, Лили Бигхем

Описание: История постановки классического художественного фильма Disney «Мэри Поппинс». Когда Уолт Дисней пообещал своим дочерям снять фильм по их любимой книге-сказке Памелы Трэверс «Мэри Поппинс», он даже не подозревал, что на исполнение этого обещания ему понадобится более двадцати лет. В попытке получить права на экранизацию книги Уолт столкнулся со своенравной и несговорчивой британской писательницей, которая ни в коем случае не хотела, чтобы её любимая героиня была «испорчена» голливудским подходом к созданию фильма. Лишь в начале шестидесятых она согласилась лично приехать в Лос-Анджелес начать переговоры об экранизации. На протяжении двух недель в 1961 году, пока длились переговоры с Памелой Трэверс, Уолт Дисней перепробовал все уловки. Он представил идеи и эскизы к фильму, пытался впечатлить писательницу великолепной музыкой, написанной талантливыми композиторами братьями Шерман, и даже устраивал экскурсии в Диснейленд. Однако Трэверс не шла ни на какие уговоры, и знаменитый кинематографист чуть было не отказался от своего замысла...



Качество: BDRip 720p
Формат: MKV
Видео: MPEG-4 AVC, 3962 Kбит/с, 1280x534, 23,976 кадра/с
Аудио 1: русский, AC3, 640 kbps, 6 ch, 48 kHz [дублированный]
Аудио 2: русский, AC3, 448 kbps, 6 ch, 48 kHz [профессиональный многоголосый, BaibaKo]
Аудио 3: русский, AC3, 448 kbps, 6 ch, 48 kHz [авторский, Андрей Гаврилов]
Аудио 4: английский, AC3, 448 kbps, 6 ch, 48 kHz [оригинал]
Субтитры 1: русские
Субтитры 2: английские
Имеются неименованные главы/чаптеры.
Общее
Уникальный идентификатор : 224521332555723757252590390629665251942 (0xA8E93C5A42E99CB48428F868107AA266)
Полное имя : D:\Video\Спасти мистера Бэнкса.2013.BDRip.720p by msltel.mkv
Формат : Matroska
Версия формата : Version 4 / Version 2
Размер файла : 5,22 Гбайт
Продолжительность : 2 ч. 5 м.
Общий поток : 5949 Кбит/сек
Название фильма : Rip by msltel
Дата кодирования : UTC 2017-04-03 02:02:41
Программа кодирования : mkvmerge v8.2.0 ('World of Adventure') 64bit
Библиотека кодирования : libebml v1.3.1 + libmatroska v1.4.2

Видео
Идентификатор : 1
Формат : AVC
Формат/Информация : Advanced Video Codec
Профиль формата : High@L4.1
Параметр CABAC формата : Да
Параметр ReFrames формата : 9 кадров
Идентификатор кодека : V_MPEG4/ISO/AVC
Продолжительность : 2 ч. 5 м.
Битрейт : 3962 Кбит/сек
Ширина : 1280 пикселей
Высота : 534 пикселя
Соотношение сторон : 2,40:1
Режим частоты кадров : Постоянный
Частота кадров : 23,976 (24000/1001) кадра/сек
Цветовое пространство : YUV
Субдискретизация насыщенности : 4:2:0
Битовая глубина : 8 бит
Тип развёртки : Прогрессивная
Бит/(Пиксели*Кадры) : 0.242
Размер потока : 3,48 Гбайт (67%)
Библиотека кодирования : x264 core 146 r2538 121396c
Настройки программы : cabac=1 / ref=9 / deblock=1:-3:-2 / analyse=0x3:0x113 / me=umh / subme=11 / psy=1 / psy_rd=1.00:0.15 / mixed_ref=1 / me_range=32 / chroma_me=1 / trellis=2 / 8x8dct=1 / cqm=0 / deadzone=21,11 / fast_pskip=0 / chroma_qp_offset=-3 / threads=6 / lookahead_threads=1 / sliced_threads=0 / nr=0 / decimate=1 / interlaced=0 / bluray_compat=0 / constrained_intra=0 / bframes=12 / b_pyramid=2 / b_adapt=2 / b_bias=0 / direct=1 / weightb=1 / open_gop=0 / weightp=2 / keyint=230 / keyint_min=23 / scenecut=40 / intra_refresh=0 / rc_lookahead=40 / rc=crf / mbtree=0 / crf=18.8 / qcomp=0.60 / qpmin=0 / qpmax=69 / qpstep=4 / vbv_maxrate=62500 / vbv_bufsize=78125 / crf_max=0.0 / nal_hrd=none / filler=0 / ip_ratio=1.40 / pb_ratio=1.30 / aq=1:1.00
Язык : English
Default : Да
Forced : Нет

Аудио #1
Идентификатор : 2
Формат : AC-3
Формат/Информация : Audio Coding 3
Параметр Endianness формата : Big
Идентификатор кодека : A_AC3
Продолжительность : 2 ч. 5 м.
Вид битрейта : Постоянный
Битрейт : 640 Кбит/сек
Каналы : 6 каналов
Расположение каналов : Front: L C R, Side: L R, LFE
Частота : 48,0 КГц
Частота кадров : 31,250 кадров/сек (1536 spf)
Битовая глубина : 16 бит
Метод сжатия : С потерями
Размер потока : 575 Мбайт (11%)
Заголовок : DUB
Язык : Russian
ServiceKind/String : Complete Main
Default : Да
Forced : Нет

Аудио #2
Идентификатор : 3
Формат : AC-3
Формат/Информация : Audio Coding 3
Параметр Endianness формата : Big
Идентификатор кодека : A_AC3
Продолжительность : 2 ч. 5 м.
Вид битрейта : Постоянный
Битрейт : 448 Кбит/сек
Каналы : 6 каналов
Расположение каналов : Front: L C R, Side: L R, LFE
Частота : 48,0 КГц
Частота кадров : 31,250 кадров/сек (1536 spf)
Битовая глубина : 16 бит
Метод сжатия : С потерями
Размер потока : 403 Мбайт (8%)
Заголовок : MVO (BaibaKo)
Язык : Russian
ServiceKind/String : Complete Main
Default : Нет
Forced : Нет

Аудио #3
Идентификатор : 4
Формат : AC-3
Формат/Информация : Audio Coding 3
Параметр Endianness формата : Big
Идентификатор кодека : A_AC3
Продолжительность : 2 ч. 5 м.
Вид битрейта : Постоянный
Битрейт : 448 Кбит/сек
Каналы : 6 каналов
Расположение каналов : Front: L C R, Side: L R, LFE
Частота : 48,0 КГц
Частота кадров : 31,250 кадров/сек (1536 spf)
Битовая глубина : 16 бит
Метод сжатия : С потерями
Размер потока : 403 Мбайт (8%)
Заголовок : AVO (Андрей Гаврилов)
Язык : Russian
ServiceKind/String : Complete Main
Default : Нет
Forced : Нет

Аудио #4
Идентификатор : 5
Формат : AC-3
Формат/Информация : Audio Coding 3
Параметр Endianness формата : Big
Идентификатор кодека : A_AC3
Продолжительность : 2 ч. 5 м.
Вид битрейта : Постоянный
Битрейт : 448 Кбит/сек
Каналы : 6 каналов
Расположение каналов : Front: L C R, Side: L R, LFE
Частота : 48,0 КГц
Частота кадров : 31,250 кадров/сек (1536 spf)
Битовая глубина : 16 бит
Метод сжатия : С потерями
Размер потока : 403 Мбайт (8%)
Заголовок : original
Язык : English
ServiceKind/String : Complete Main
Default : Нет
Forced : Нет

Текст #1
Идентификатор : 6
Формат : UTF-8
Идентификатор кодека : S_TEXT/UTF8
Идентификатор кодека/Информация : UTF-8 Plain Text
Продолжительность : 2 ч. 2 м.
Битрейт : 88 бит/сек
ElementCount : 1661
Размер потока : 79,2 Кбайт (0%)
Заголовок : русские
Язык : Russian
Default : Нет
Forced : Нет

Текст #2
Идентификатор : 7
Формат : UTF-8
Идентификатор кодека : S_TEXT/UTF8
Идентификатор кодека/Информация : UTF-8 Plain Text
Продолжительность : 2 ч. 1 м.
Битрейт : 58 бит/сек
ElementCount : 1830
Размер потока : 52,3 Кбайт (0%)
Заголовок : английские
Язык : English
Default : Нет
Forced : Нет

Меню
00:00:00.000 : en:Chapter 01
00:06:41.401 : en:Chapter 02
00:10:11.193 : en:Chapter 03
00:16:28.404 : en:Chapter 04
00:26:07.274 : en:Chapter 05
00:29:33.980 : en:Chapter 06
00:32:43.169 : en:Chapter 07
00:35:58.781 : en:Chapter 08
00:40:19.291 : en:Chapter 09
00:45:10.666 : en:Chapter 10
00:48:48.926 : en:Chapter 11
00:53:28.205 : en:Chapter 12
00:57:06.423 : en:Chapter 13
01:07:23.372 : en:Chapter 14
01:12:46.737 : en:Chapter 15
01:15:47.751 : en:Chapter 16
01:19:05.907 : en:Chapter 17
01:24:02.495 : en:Chapter 18
01:28:41.065 : en:Chapter 19
01:32:49.814 : en:Chapter 20
01:38:12.177 : en:Chapter 21
01:47:33.572 : en:Chapter 22
01:53:46.486 : en:Chapter 23
01:58:44.909 : en:Chapter 24
pb.wtf



Скачать Спасти мистера Бэнкса через торрент http://hostpic.gq/img/2017-04/03/w8cgl9atvizftjuak8l47uaxn.jpg Скачать фильм Спасти мистера Бэнкса через торрент бесплантно в хорошем качестве Описание: История постановки классического художественного фильма Disney «Мэри Поппинс». Когда Уолт Дисней пообещал своим дочерям снять ... 10 10 2
Info! Золотая раздача, скачанное не засчитывается.
Торрент: Зарегистрирован [2017-04-03 09:59] · скачан: 85 раз
Статус: √ проверено
Размер: 5.22 GB
Как cкачать? Как скачать Спасти мистера Бэнкса через торрент | qTorrent

% Раздел Тема Автор DL S | L
Фильмы [HD 720p, 1080p] (Хороший звук DUB, MVO) [ 14.75 GB ] Спасти мистера Бэнкса / Saving Mr. Banks [2013 история биография музыка BDRip 1080p by msltel] DUB MVO AVO msltel Скачать
1 | 0

28-11-2019 20:33  

Отключить всю рекламу на сайте

    Дорогой пользователь! Огромная просьба, поблагодарите релизера, оцените раздачу и оставьте свои комментарий, если Вы скачали Спасти мистера Бэнкса через торрент бесплатно! Внесите свою лепту в развитие PiratBit!
    Комментировать посты могут только пользователи прошедшие не сложную регистрацию
    Показать сообщения:    

    Спасти мистера Бэнкса через торрент
    Скачать бесплатно Спасти мистера Бэнкса
    Спасти мистера Бэнкса скачать торрент
    Спасти мистера Бэнкса смотреть онлайн
    Cкачать фильм Спасти мистера Бэнкса бесплатно
    Спасти мистера Бэнкса скачать торрент в хорошем качестве
    Спасти мистера Бэнкса смотреть онлайн бесплатно в хорошем качестве


    Вы не можете начинать темы
    Вы не можете отвечать на сообщения
    Вы не можете редактировать свои сообщения
    Вы не можете удалять свои сообщения
    Вы не можете голосовать в опросах
    Вы не можете прикреплять файлы к сообщениям
    Вы можете скачивать файлы