новый адрес пиратбит piratbit
Мега распродажа FORZA HORIZON 4 ULTIMATE+ВСЕ DLC+ОНЛАЙН всего за 499р. 349 руб. (супер цена). Внимание количество ограничено!!!

iTunes

1+1

iTunes

мы

iTunes

1

iTunes

Чернобыль

iTunes

Ральф против интернета

Лицензия

ПШазам

Лицензия

Игра престолов

Лицензия

30
pack

ВАЖНО

!!Акция!!

Alien_RageХит недели

RePack

Resident Evil 21

ИГРА 18+

pack

RePack

Metro:Exodus

!!Акция!!

Alien_Rage

RePack

fifa19

RePack

Assassins Creed: Odyssey

RePack

NEED FOR SPEED™ PAYBACK

3 сезон

9 сезон

Бесстыжие 9 сезон

Все сериалы

все сериалы на PB.wtf

RePack

FAR CRY 5
Ребята, катастрофически не хватает 1900р. для оплаты серверов за Октябрь (всвязи с блокировками трафик упал в 3 раза), 1-2р., выручайте.
  

Пигмалион (Сергей Алексеев) [1957, СССР, комедия, DVDRip от AVP Studio] pb.wtf

Пигмалион через торрент pb.wtf

Размер: 1.46 GB | Добавлен: 2 года 7 мес. назад | Торрент скачан:9 раз
Скачать  

03-04-2017 10:15 Пигмалион Скачать торрент  

Пигмалион
Страна: СССР
Производство: Мосфильм

Жанр: комедия
Год выпуска: 1957
Продолжительность: 01:30:34

Перевод: Не требуется
Cубтитры: нет
Оригинальная аудиодорожка: русский

Режиссер: Сергей Алексеев

В ролях:
Михаил Царёв, Евдокия Турчанинова, Евгений Велихов, Констанция Роек, Владимир Владиславский, Нина Григоровская, Наталья Стоянова, Екатерина Еланская, Пров Садовский...
Об актёрах подробней

Описание:
Телефильм. Экранизация спектакля Малого театра по пьесе Бернарда Шоу "Пигмалион".
Профессор фонетики мистер Хиггинс (Михаил Царев) решил доказать, что сможет благодаря своим знаниям и педагогическому искусству превратить Элизу (Констанция Роек) - простую уличную цветочницу с ужасающей речью и манерами, в светскую даму и представить ее гостям как герцогиню.
Мать профессора играет великолепная, умная актриса - одна из трех великих старух Малого театра` - Евдокия Дмитриевна Турчанинова. Абсолютная англичанка, аристократка, которую мог написать только Шоу и никто другой. Действие третьего акта пьесы происходит в доме миссис Хиггинс. Наконец, Хиггинс решил устроить ученице первый экзамен: привез Элизу к своей матери в ее приемный день. У Турчаниновой в этой сцене не так много слов, но она умеет говорить и без слов одними глазами, и зритель совершенно безошибочно знает, о чем она в данный момент думает. Эта партитура мысли была разработана актрисой безукоризненно. Мисси Хиггинс выше всех остальных гостей: она первая и единственная в холодном и искусственном мире встала на защиту человека. Не случайно в минуту отчаяния Элиза придет к ней, к ироничной старой леди с добрыми и мудрыми глазами. Эта тончайшая актриса сумела передать парадоксальную манеру письма великого насмешника Бернарда Шоу.

Источник: DVD5 R5
Качество видео: DVDRip
Формат видео: AVI

Видео: 688x512 (4:3), 25 fps, XviD ~ 2103 kbps avg, 0.239 bit/pixel
Аудио: 48 kHz, Dolby Digital AC3 2.0, 192 kbps

Раздача от:
Общее
Полное имя : Pigmalion.1957.DVDRip_[New-team]_by_AVP_Studio.avi
Формат : AVI
Формат/Информация : Audio Video Interleave
Размер файла : 1,46 Гбайт
Продолжительность : 1 ч. 30 м.
Общий поток : 2305 Кбит/сек
Программа кодирования : VirtualDubMod 1.5.10.3 | www.virtualdub-fr.org || (build 2550/release)
Библиотека кодирования : VirtualDubMod build 2550/release

Видео
Идентификатор : 0
Формат : MPEG-4 Visual
Профиль формата : Advanced Simple@L5
Параметр BVOP формата : 1
Параметр QPel формата : Нет
Параметр GMC формата : Без точки перехода
Параметр матрицы формата : Выборочная
Идентификатор кодека : XVID
Идентификатор кодека/Подсказка : XviD
Продолжительность : 1 ч. 30 м.
Битрейт : 2103 Кбит/сек
Ширина : 688 пикселей
Высота : 512 пикселей
Соотношение сторон : 4:3
Частота кадров : 25,000 кадров/сек
Цветовое пространство : YUV
Субдискретизация насыщенности : 4:2:0
Битовая глубина : 8 бит
Тип развёртки : Прогрессивная
Метод сжатия : С потерями
Бит/(Пиксели*Кадры) : 0.239
Размер потока : 1,33 Гбайт (91%)
Библиотека кодирования : XviD 73

Аудио
Идентификатор : 1
Формат : AC-3
Формат/Информация : Audio Coding 3
Параметр Endianness формата : Big
Идентификатор кодека : 2000
Продолжительность : 1 ч. 30 м.
Вид битрейта : Постоянный
Битрейт : 192 Кбит/сек
Каналы : 2 канала
Расположение каналов : Front: L R
Частота : 48,0 КГц
Частота кадров : 31,250 кадров/сек (1536 spf)
Битовая глубина : 16 бит
Метод сжатия : С потерями
Размер потока : 124 Мбайт (8%)
Выравнивание : Разделение по промежуткам
Продолжительность промежутка : 40 мс. (1,00 видеокадр)
Время предзагрузки промежутка : 500 мс
pb.wtf



Скачать Пигмалион через торрент http://s002.radikal.ru/i198/1704/09/c531da00f385.png Скачать фильм Пигмалион через торрент бесплантно в хорошем качестве Описание:Телефильм. Экранизация спектакля Малого театра по пьесе Бернарда Шоу "Пигмалион".Профессор фонетики мистер Хиггинс (Михаил Царев) ... 10 10 1
Info! Золотая раздача, скачанное не засчитывается.
Торрент: Зарегистрирован [2017-04-03 10:15] · скачан: 9 раз
Статус: √ проверено
Размер: 1.46 GB
Как cкачать? Как скачать Пигмалион через торрент | qTorrent

% Раздел Тема Автор DL S | L
Кино СССР [ 1.46 GB ] Пигмалион [1957 СССР DVDRip-AVC от AVP Studio] AVP Studio Скачать
1 | 0
Кино СССР [ 745 MB ] Пигмалион [1957 СССР DVDRip от AVP Studio] AVP Studio Скачать
2 | 0


>> Регистрируемся здесь <<






Отзывы и комментарии о схеме читаем и пишем здесь: ---> Отзывы и комментарии о схеме

Новые благодарочки в телеграм довольных пользователей:
скриншот   скриншот   скриншот   скриншот   скриншот
    Дорогой пользователь! Огромная просьба, поблагодарите релизера, оцените раздачу и оставьте свои комментарий, если Вы скачали Пигмалион через торрент бесплатно! Внесите свою лепту в развитие PiratBit!
    Комментировать посты могут только пользователи прошедшие не сложную регистрацию
    Показать сообщения:    

    Пигмалион через торрент
    Скачать бесплатно Пигмалион
    Пигмалион скачать торрент
    Пигмалион смотреть онлайн
    Cкачать фильм Пигмалион бесплатно
    Пигмалион скачать торрент в хорошем качестве
    Пигмалион смотреть онлайн бесплатно в хорошем качестве


    Вы не можете начинать темы
    Вы не можете отвечать на сообщения
    Вы не можете редактировать свои сообщения
    Вы не можете удалять свои сообщения
    Вы не можете голосовать в опросах
    Вы не можете прикреплять файлы к сообщениям
    Вы можете скачивать файлы