2 сезон

iTunes

1 сезон

1

iTunes

iTunes

iTunes

1 сезон

RePack

30

ИГРА 18+

pack

ВАЖНО

!!Акция!!

Alien_RageХит недели

RePack

MK11
pack

Забери бонус

RePack

jed

!!Акция!!

Alien_Rage

RePack

fifa19

RePack

Assassins Creed: Odyssey

RePack

NEED FOR SPEED™ PAYBACK

4 сезон

9 сезон

Бесстыжие 9 сезон

Все сериалы

все сериалы на PB.wtf

RePack

FAR CRY 5
  

За пригоршню долларов / A Fistful of Dollars / Per un pugno di dollari (Серджио Леоне) [1964, вестерн, BDRip 720p от еnvy / NNNB] MVO, AVO pb.wtf

За пригоршню долларов через торрент pb.wtf

Раздают: 2 [ 0 KB/s ]
Размер: 7.23 GB | Добавлен: 3 года 6 мес. назад | Торрент скачан:68 раз
Скачать  

03-04-2017 14:27 За пригоршню долларов Скачать торрент  

Информация о фильме

Русское название: За пригоршню долларов
Оригинальное название: A Fistful of Dollars / Per un pugno di dollari
Год выхода: 1964
Жанр: вестерн
Режиссер: Серджио Леоне
Выпущено: Италия, Испания, Германия (ФРГ)
Продолжительность: 01:39:54
Перевод: Профессиональный (многоголосый закадровый), Авторский одноголосый
В ролях: Клинт Иствуд, Джан Мария Волонте, Марианне Кох, Вольфганг Лукши, Зигхардт Рупп, Йозеф Эггер, Антонио Прието, Хосе Кальво, Маргарита Лосано, Дэниэл Мартин, Бенито Стефанелли, Марио Брега, Бруно Каротенуто, Альдо Самбрелл, Гарри Дин Стэнтон, Эдмондо Тиеи
Описание:

В маленьком городке идет война между двумя влиятельными семействами, которых абсолютно не интересует закон. Герой Клинта Иствуда — человек без имени, умеющий стрелять без промаха…


Файл

Качество: BDRip 720p (исходник Blu-Ray Remux 1080p)
Формат: MKV
Видео: 1280x546, 8755 Кбит/сек, 24,000 кадр/сек, AVC, x264, High@L4.1, 2.35:1, 0.522 Бит/[Пиксели*Кадры]
Аудио 1: AC-3, 448 Кбит/сек, 6 канала(ов), 48,0 КГц - Многоголосый закадровый / Русский
Аудио 2: AC-3, 384 Кбит/сек, 6 канала(ов), 48,0 КГц - Одноголосый закадровый, Д.Пучков / Русский
Аудио 3: AC-3, 192 Кбит/сек, 2 канала(ов), 48,0 КГц - Одноголосый закадровый, А.Гаврилов / Русский
Аудио 4: AC-3, 192 Кбит/сек, 2 канала(ов), 48,0 КГц - Одноголосый закадровый, В.Горчаков / Русский
Аудио 5: AC-3, 384 Кбит/сек, 6 канала(ов), 48,0 КГц - Оригинал / Английский
Субтитры: Русские | Полные, Английские | Полные
Форсированные субтитры: Нет
Чаптеры (Главы): Есть






Автор Рипа: Группа:


Format : Matroska
Format version : Version 2
File size : 7.23 GiB
Duration : 1 h 39 min
Overall bit rate : 10.4 Mb/s
Movie name : A Fistful of Dollars.(1964).BDRip.720p.[envy]
Encoded date : UTC 2017-04-03 05:29:49
Writing application : mkvmerge v5.8.0 ('No Sleep / Pillow') built on Sep 2 2012 15:37:04
Writing library : libebml v1.2.3 + libmatroska v1.3.0

Video
ID : 1
Format : AVC
Format/Info : Advanced Video Codec
Format profile : High@L4.1
Format settings, CABAC : Yes
Format settings, ReFrames : 10 frames
Muxing mode : Header stripping
Codec ID : V_MPEG4/ISO/AVC
Duration : 1 h 39 min
Bit rate : 8 755 kb/s
Width : 1 280 pixels
Height : 546 pixels
Display aspect ratio : 2.35:1
Frame rate mode : Constant
Frame rate : 24.000 FPS
Color space : YUV
Chroma subsampling : 4:2:0
Bit depth : 8 bits
Scan type : Progressive
Bits/(Pixel*Frame) : 0.522
Stream size : 5.97 GiB (83%)
Title : A Fistful of Dollars.(1964).BDRip.720p.[envy]
Writing library : x264 core 148 r2744 b97ae06
Encoding settings : cabac=1 / ref=10 / deblock=1:-3:-3 / analyse=0x3:0x133 / me=umh / subme=11 / psy=1 / psy_rd=1.00:0.00 / mixed_ref=1 / me_range=32 / chroma_me=1 / trellis=2 / 8x8dct=1 / cqm=0 / deadzone=21,11 / fast_pskip=0 / chroma_qp_offset=-2 / threads=12 / lookahead_threads=1 / sliced_threads=0 / nr=0 / decimate=1 / interlaced=0 / bluray_compat=0 / constrained_intra=0 / bframes=5 / b_pyramid=2 / b_adapt=2 / b_bias=0 / direct=3 / weightb=1 / open_gop=0 / weightp=2 / keyint=240 / keyint_min=24 / scenecut=40 / intra_refresh=0 / rc=2pass / mbtree=0 / bitrate=8755 / ratetol=2.0 / qcomp=0.60 / qpmin=0 / qpmax=69 / qpstep=4 / cplxblur=20.0 / qblur=0.5 / ip_ratio=1.40 / pb_ratio=1.30 / aq=1:0.65
Language : English
Default : Yes
Forced : No

Audio #1
ID : 2
Format : AC-3
Format/Info : Audio Coding 3
Format settings, Endianness : Big
Muxing mode : Header stripping
Codec ID : A_AC3
Duration : 1 h 39 min
Bit rate mode : Constant
Bit rate : 448 kb/s
Channel(s) : 6 channels
Channel positions : Front: L C R, Side: L R, LFE
Sampling rate : 48.0 kHz
Frame rate : 31.250 FPS (1536 spf)
Bit depth : 16 bits
Compression mode : Lossy
Stream size : 320 MiB (4%)
Title : MVO
Language : Russian
Service kind : Complete Main
Default : Yes
Forced : No

Audio #2
ID : 3
Format : AC-3
Format/Info : Audio Coding 3
Format settings, Endianness : Big
Muxing mode : Header stripping
Codec ID : A_AC3
Duration : 1 h 39 min
Bit rate mode : Constant
Bit rate : 384 kb/s
Channel(s) : 6 channels
Channel positions : Front: L C R, Side: L R, LFE
Sampling rate : 48.0 kHz
Frame rate : 31.250 FPS (1536 spf)
Bit depth : 16 bits
Compression mode : Lossy
Stream size : 274 MiB (4%)
Title : AVO Пучков (Goblin)
Language : Russian
Service kind : Complete Main
Default : No
Forced : No

Audio #3
ID : 4
Format : AC-3
Format/Info : Audio Coding 3
Mode : Dolby Digital
Format settings, Endianness : Big
Muxing mode : Header stripping
Codec ID : A_AC3
Duration : 1 h 39 min
Bit rate mode : Constant
Bit rate : 192 kb/s
Channel(s) : 2 channels
Channel positions : Front: L R
Sampling rate : 48.0 kHz
Frame rate : 31.250 FPS (1536 spf)
Bit depth : 16 bits
Compression mode : Lossy
Stream size : 137 MiB (2%)
Title : AVO Гаврилов
Language : Russian
Service kind : Complete Main
Default : No
Forced : No

Audio #4
ID : 5
Format : AC-3
Format/Info : Audio Coding 3
Mode : Dolby Digital
Format settings, Endianness : Big
Muxing mode : Header stripping
Codec ID : A_AC3
Duration : 1 h 39 min
Bit rate mode : Constant
Bit rate : 192 kb/s
Channel(s) : 2 channels
Channel positions : Front: L R
Sampling rate : 48.0 kHz
Frame rate : 31.250 FPS (1536 spf)
Bit depth : 16 bits
Compression mode : Lossy
Stream size : 137 MiB (2%)
Title : AVO Горчаков
Language : Russian
Service kind : Complete Main
Default : No
Forced : No

Audio #5
ID : 6
Format : AC-3
Format/Info : Audio Coding 3
Format settings, Endianness : Big
Muxing mode : Header stripping
Codec ID : A_AC3
Duration : 1 h 39 min
Bit rate mode : Constant
Bit rate : 384 kb/s
Channel(s) : 6 channels
Channel positions : Front: L C R, Side: L R, LFE
Sampling rate : 48.0 kHz
Frame rate : 31.250 FPS (1536 spf)
Bit depth : 16 bits
Compression mode : Lossy
Stream size : 274 MiB (4%)
Title : Eng
Language : English
Service kind : Complete Main
Default : No
Forced : No

Text #1
ID : 7
Format : UTF-8
Codec ID : S_TEXT/UTF8
Codec ID/Info : UTF-8 Plain Text
Title : Rus full
Language : Portuguese
Default : No
Forced : No

Text #2
ID : 8
Format : UTF-8
Codec ID : S_TEXT/UTF8
Codec ID/Info : UTF-8 Plain Text
Title : Eng full
Language : English
Default : No
Forced : No

Menu
00:00:00.000 : :Chapter 01
00:02:53.707 : :Chapter 02
00:08:26.333 : :Chapter 03
00:16:38.083 : :Chapter 04
00:21:15.875 : :Chapter 05
00:27:48.000 : :Chapter 06
00:34:26.250 : :Chapter 07
00:36:59.083 : :Chapter 08
00:41:20.792 : :Chapter 09
00:47:50.083 : :Chapter 10
00:50:38.500 : :Chapter 11
00:57:24.125 : :Chapter 12
01:00:57.875 : :Chapter 13
01:07:26.583 : :Chapter 14
01:11:52.957 : :Chapter 15
01:24:55.832 : :Chapter 16
01:28:56.167 : :Chapter 17
01:34:37.708 : :Chapter 18

pb.wtf



Скачать За пригоршню долларов через торрент http://img11.lostpic.net/2017/04/03/4d81105ad3ebb3d9acdac7cc414c7ada.png Скачать фильм За пригоршню долларов через торрент бесплантно в хорошем качестве Описание:В маленьком городке идет война между двумя влиятельными семействами, которых абсолютно не интересует закон. Герой Клинта Иствуда — ... 10 10 3
Info! Золотая раздача, скачанное не засчитывается.
Торрент: Зарегистрирован [2017-04-03 14:27] · скачан: 68 раз
Статус: √ проверено
Размер: 7.23 GB
Как cкачать? Как скачать За пригоршню долларов через торрент | qTorrent

28-11-2019 20:33  

Отключить всю рекламу на сайте

03-04-2017 17:05 За пригоршню долларов Скачать торрент  

Ни разу не смотрел, но в нем снимался Клин Иствуд, фильм просто не может быть плохимpb.wtf



03-04-2017 19:01 За пригоршню долларов Скачать торрент  

кадры из фильма "назад в будущее - 2" ))) Когда бифф будущего смотрел по видаку )))pb.wtf



    Дорогой пользователь! Огромная просьба, поблагодарите релизера, оцените раздачу и оставьте свои комментарий, если Вы скачали За пригоршню долларов через торрент бесплатно! Внесите свою лепту в развитие PiratBit!
    Комментировать посты могут только пользователи прошедшие не сложную регистрацию
    Показать сообщения:    

    За пригоршню долларов через торрент
    Скачать бесплатно За пригоршню долларов
    За пригоршню долларов скачать торрент
    За пригоршню долларов смотреть онлайн
    Cкачать фильм За пригоршню долларов бесплатно
    За пригоршню долларов скачать торрент в хорошем качестве
    За пригоршню долларов смотреть онлайн бесплатно в хорошем качестве


    Вы не можете начинать темы
    Вы не можете отвечать на сообщения
    Вы не можете редактировать свои сообщения
    Вы не можете удалять свои сообщения
    Вы не можете голосовать в опросах
    Вы не можете прикреплять файлы к сообщениям
    Вы можете скачивать файлы