Ссылка на приватное зеркало нашего сайта всего за 1$. Внимание количество ограничено!!!

2 сезон

iTunes

1 сезон

1

iTunes

iTunes

iTunes

1 сезон

RePack

30

ИГРА 18+

pack

ВАЖНО

!!Акция!!

Alien_RageХит недели

RePack

MK11
pack

Забери бонус

RePack

jed

!!Акция!!

Alien_Rage

RePack

fifa19

RePack

Assassins Creed: Odyssey

RePack

NEED FOR SPEED™ PAYBACK

4 сезон

9 сезон

Бесстыжие 9 сезон

Все сериалы

все сериалы на PB.wtf

RePack

FAR CRY 5
  

Обмен / Серии: 1-4 из 4 (Виктор Татарский) [2014, боевик, криминал, HDTV 1080i] Не требуется [Русский] от R.G.Resident pb.wtf

Обмен через торрент pb.wtf

Размер: 7.36 GB | Добавлен: 3 года 6 мес. назад | Торрент скачан:51 раз
Скачать  

03-04-2017 14:45 Обмен Скачать торрент  

Обмен


Год выпуска: 2014
Страна: Россия
Жанр: боевик, криминал
Продолжительность: 00:43:05
Перевод: Не требуется [Русский]
Режиссер: Виктор Татарский
В ролях:

Алексей Комашко (Андрей Поборцев), Светлана Щедрина (Наталья), Игорь Павлов (Карнаухов), Максим Дахненко, Андрей Гульнев, Вячеслав Аркунов, Роман Агеев, Валерия Шкирандо (Мэри), Евгений Добряков (Витя Ромашин), Сергей Смирнов, Мира Мордасова (жена олигарха), Алексей Яншин (капитан полиции)
Описание:
Майор Поборцев расследует дело о серии дерзких налетов на банки. В процессе расследования ему удается захватить одного из шести налетчиков. Для этого следователю приходится также дерзко нарушить инструкцию, но попытаться спасти жизнь девушки-заложницы.

Качество: HDTV 1080i Rip by
Формат: MKV
Видео: AVC, 1920x1080 (16:9), 5870 kbps, 25 fps, 0,113 bpp
Аудио: AC3 / 2.0 / 48 kHz / 192 kbps /

General
Unique ID : 190347648950675664725934218059716271253 (0x8F339FAA86D8926697AA0C5718589C95)
Complete name : E:\obmen.2014.HDTV 1080i.by.R.G.Resident\Obmen.s01.e01.2014.HDTV 1080.by.White Smoke.R.G.Resident.mkv
Format : Matroska
Format version : Version 4 / Version 2
File size : 1.86 GiB
Duration : 43 min
Overall bit rate : 6 186 kb/s
Movie name : Obmen.s01.e01.2014.HDTV 1080.by.White Smoke.R.G.Resident.mkv
Encoded date : UTC 2017-04-03 13:10:30
Writing application : mkvmerge v6.8.0 ('Theme for Great Cities') 64bit built on Mar 2 2014 21:34:26
Writing library : libebml v1.3.0 + libmatroska v1.4.1

Video
ID : 1
Format : AVC
Format/Info : Advanced Video Codec
Format profile : Main@L4.1
Format settings, CABAC : No
Format settings, ReFrames : 1 frame
Codec ID : V_MPEG4/ISO/AVC
Duration : 43 min
Bit rate : 5 871 kb/s
Width : 1 920 pixels
Height : 1 080 pixels
Display aspect ratio : 16:9
Frame rate mode : Constant
Frame rate : 25.000 FPS
Color space : YUV
Chroma subsampling : 4:2:0
Bit depth : 8 bits
Scan type : Progressive
Bits/(Pixel*Frame) : 0.113
Stream size : 1.77 GiB (95%)
Default : No
Forced : No

Audio
ID : 2
Format : AC-3
Format/Info : Audio Coding 3
Mode extension : CM (complete main)
Format settings, Endianness : Big
Codec ID : A_AC3
Duration : 43 min
Bit rate mode : Constant
Bit rate : 192 kb/s
Channel(s) : 2 channels
Channel positions : Front: L R
Sampling rate : 48.0 kHz
Frame rate : 31.250 FPS (1536 spf)
Compression mode : Lossy
Delay relative to video : -200 ms
Stream size : 59.2 MiB (3%)
Default : Yes
Forced : No

© Оформление by White Smoke pb.wtf



Скачать Обмен через торрент http://i91.fastpic.ru/big/2017/0403/af/5dc176cf11a55061428c9e7af57f1faf.png Скачать фильм Обмен через торрент бесплантно в хорошем качестве Описание: Майор Поборцев расследует дело о серии дерзких налетов на банки. В процессе расследования ему удается захватить одного из шести ... 9.4 10 5
Info! Золотая раздача, скачанное не засчитывается.
Торрент: Зарегистрирован [2017-04-03 14:45] · скачан: 51 раз
Статус: √ проверено
Размер: 7.36 GB
Как cкачать? Как скачать Обмен через торрент | qTorrent

28-11-2019 20:33  

Отключить всю рекламу на сайте

04-04-2017 06:43 Обмен Скачать торрент  

    Дорогой пользователь! Огромная просьба, поблагодарите релизера, оцените раздачу и оставьте свои комментарий, если Вы скачали Обмен через торрент бесплатно! Внесите свою лепту в развитие PiratBit!
    Комментировать посты могут только пользователи прошедшие не сложную регистрацию
    Показать сообщения:    

    Обмен через торрент
    Скачать бесплатно Обмен
    Обмен скачать торрент
    Обмен смотреть онлайн
    Cкачать фильм Обмен бесплатно
    Обмен скачать торрент в хорошем качестве
    Обмен смотреть онлайн бесплатно в хорошем качестве


    Вы не можете начинать темы
    Вы не можете отвечать на сообщения
    Вы не можете редактировать свои сообщения
    Вы не можете удалять свои сообщения
    Вы не можете голосовать в опросах
    Вы не можете прикреплять файлы к сообщениям
    Вы можете скачивать файлы