Ссылка на приватное зеркало нашего сайта всего за 1$. Внимание количество ограничено!!!

2 сезон

iTunes

1 сезон

1

iTunes

iTunes

iTunes

1 сезон

RePack

30

ИГРА 18+

pack

ВАЖНО

!!Акция!!

Alien_RageХит недели

RePack

MK11
pack

Забери бонус

RePack

jed

!!Акция!!

Alien_Rage

RePack

fifa19

RePack

Assassins Creed: Odyssey

RePack

NEED FOR SPEED™ PAYBACK

4 сезон

9 сезон

Бесстыжие 9 сезон

Все сериалы

все сериалы на PB.wtf

RePack

FAR CRY 5
  

Свидетельство о рождении / Серия 1- 8 из 8 (Елена Цыплакова) [2017 г., Мелодрама, Криминал, SATRip] pb.wtf

Свидетельство о рождении через торрент pb.wtf

Размер: 5.28 GB | Добавлен: 3 года 6 мес. назад | Торрент скачан:110 раз
Скачать  

03-04-2017 22:01 Свидетельство о рождении Скачать торрент  

Свидетельство о рождении
Год выпуска: 2017
Страна: Россия
Жанр: Мелодрама, Криминал
Продолжительность: 8 х 00:51:00
Субтитры: нет

Режиссер: Елена Цыплакова

В ролях: Елена Аросьева, Илья Носков, Елена Цыплакова, Данила Дунаев, Максим Радугин, Иван Шабалтас, Надежда Бахтина, Геннадий Смирнов, Стэфания Заровная

Описание: Ольга (Елена Аросева) – музейный работник в провинциальном городе. Четыре года назад пропала ее годовалая дочь Юля. Муж Ольги Игорь (Данила Дунаев) спасается от депрессии связями на стороне, Ольга ушла с головой в работу. Узнав, что следователь закрывает дело о об исчезновении Юли, Игорь предлагает жене смириться и родить еще одного ребенка. Но Ольга отказывается. Она верит, что девочка жива.
Однажды в музей заходят приезжие из Москвы, среди них Евгений (Максим Радугин). Между Ольгой и Евгением вспыхивает роман, о котором вскоре становится известно Игорю: неизвестный доброжелатель пересылает ему любовную переписку. Взбешенный Игорь насилует жену.

Качество: SATRip
Формат: AVI
Видео кодек: XviD
Аудио кодек: MP3
Видео: 720x400 (1.80:1), 25 fps, XviD build 50 ~1800 kbps avg, 0.25 bit/pixel
Аудио#1: 48 kHz, MPEG Layer 3, 2 ch, ~128.00 kbps avg



General
Complete name : H:\релизы.торрентфайл\Svidetelstvo.o.rozhdenii.02.SATRip.[www.riperam.org].avi
Format : AVI
Format/Info : Audio Video Interleave
File size : 649 MiB
Duration : 46mn 49s
Overall bit rate : 1 938 Kbps
Writing application : VirtualDubMod 1.5.10.3 | www.virtualdub-fr.org || (build 2550/release)
Writing library : VirtualDubMod build 2550/release

Video
ID : 0
Format : MPEG-4 Visual
Format profile : Advanced Simple@L5
Format settings, BVOP : 2
Format settings, QPel : No
Format settings, GMC : No warppoints
Format settings, Matrix : Default (H.263)
Codec ID : XVID
Codec ID/Hint : XviD
Duration : 46mn 49s
Bit rate : 1 800 Kbps
Width : 720 pixels
Height : 400 pixels
Display aspect ratio : 16:9
Frame rate : 25.000 fps
Color space : YUV
Chroma subsampling : 4:2:0
Bit depth : 8 bits
Scan type : Progressive
Compression mode : Lossy
Bits/(Pixel*Frame) : 0.250
Stream size : 603 MiB (93%)
Writing library : XviD 1.2.1 (UTC 2008-12-04)

Audio
ID : 1
Format : MPEG Audio
Format version : Version 1
Format profile : Layer 3
Mode : Joint stereo
Mode extension : MS Stereo
Codec ID : 55
Codec ID/Hint : MP3
Duration : 46mn 49s
Bit rate mode : Constant
Bit rate : 128 Kbps
Channel(s) : 2 channels
Sampling rate : 48.0 KHz
Compression mode : Lossy
Stream size : 42.9 MiB (7%)
Alignment : Aligned on interleaves
Interleave, duration : 40 ms (1.00 video frame)
Interleave, preload duration : 504 ms
Writing library : LAME3.99r
Encoding settings : -m j -V 4 -q 9 -lowpass 17 -b 128

Внимание! Раздача ведётся путём добавления новых серий; при каждом добавлении создётся новый торрент. Чтобы начать докачку новой серии, пользователям необходимо сделать следующее:
  • Остановить скачивание,
  • Удалить старый торрент у себя из клиента (старые серии удалять не надо),
  • Скачать новый торрент и запустить его у себя в клиенте вместо старого, при этом указать клиенту путь в старую папку куда и должно происходить скачивание новых серий.
Ваш клиент при этом должен произвести хеширование (проверку) старой папки (если не производит сам - помогите ему сделать это), и будет докачивать только те серии которых у вас ещё нет. Старые серии при этом не удаляются, а продолжают раздаваться!

Eсли вы уже удалили старые серии, то предотвратить повторную закачку старых серий можно, отжав галочку в соответсвующих местах при запуске нового торрента. По возможности, желательно не удалять старые серии как можно дольше чтобы релизёр не столько продолжал раздавать старые серии, а смог сконцентрироваться на новых.
pb.wtf



Скачать Свидетельство о рождении через торрент http://pic1.kartinco.top/images/11/ty4bv.jpg Скачать фильм Свидетельство о рождении через торрент бесплантно в хорошем качестве Описание: Ольга (Елена Аросева) – музейный работник в провинциальном городе. Четыре года назад пропала ее годовалая дочь Юля. Муж Ольги ... 9.9 10 9
Торрент: Зарегистрирован [2017-04-06 13:42] · скачан: 110 раз
Статус: √ проверено
Размер: 5.28 GB
Как cкачать? Как скачать Свидетельство о рождении через торрент | qTorrent

% Раздел Тема Автор DL S | L
Наши сериалы [ 10.24 GB ] Свидетельство о рождении / 1-8 серии из 8 [2017 HDTVRip 720p] bober100 Скачать
1 | 0


Последний раз редактировалось: oleg8 (2017-04-06 13:42), всего редактировалось 2 раз(а)

28-11-2019 20:33  

Отключить всю рекламу на сайте

04-04-2017 21:49 Свидетельство о рождении Скачать торрент  

добавил 3-4 серию.pb.wtf



05-04-2017 13:47 Свидетельство о рождении Скачать торрент  

добавил 5-6 серии.pb.wtf



06-04-2017 13:44 Свидетельство о рождении Скачать торрент  

Добавил 7-8 серии,сериал весь.pb.wtf



    Дорогой пользователь! Огромная просьба, поблагодарите релизера, оцените раздачу и оставьте свои комментарий, если Вы скачали Свидетельство о рождении через торрент бесплатно! Внесите свою лепту в развитие PiratBit!
    Комментировать посты могут только пользователи прошедшие не сложную регистрацию
    Показать сообщения:    

    Свидетельство о рождении через торрент
    Скачать бесплатно Свидетельство о рождении
    Свидетельство о рождении скачать торрент
    Свидетельство о рождении смотреть онлайн
    Cкачать фильм Свидетельство о рождении бесплатно
    Свидетельство о рождении скачать торрент в хорошем качестве
    Свидетельство о рождении смотреть онлайн бесплатно в хорошем качестве


    Вы не можете начинать темы
    Вы не можете отвечать на сообщения
    Вы не можете редактировать свои сообщения
    Вы не можете удалять свои сообщения
    Вы не можете голосовать в опросах
    Вы не можете прикреплять файлы к сообщениям
    Вы можете скачивать файлы