Ссылка на приватное зеркало нашего сайта всего за 1$. Внимание количество ограничено!!!

2 сезон

iTunes

1 сезон

1

2 сезон

2 сезон

iTunes

1 сезон

RePack

30

Новинка

ВАЖНО

ИГРА 18+

pack

RePack

MK11
pack

Забери бонус

RePack

jed

!!Акция!!

Alien_Rage

RePack

fifa19

RePack

Assassins Creed: Odyssey

RePack

NEED FOR SPEED™ PAYBACK

4 сезон

9 сезон

Бесстыжие 9 сезон

Все сериалы

все сериалы на PB.wtf

RePack

FAR CRY 5
  

Золотой ребенок / The Golden Child (Майкл Ритчи ) [1986, фэнтези, боевик, комедия, WEB-DL 1080p] 4хMVO+3хAVO pb.wtf

Золотой ребенок через торрент pb.wtf

Раздают: 1 [ 0 KB/s ]
Размер: 5.06 GB | Добавлен: 3 года 7 мес. назад | Торрент скачан:105 раз
Скачать  

04-04-2017 03:12 Золотой ребенок Скачать торрент  

Золотой ребенок / The Golden Child

Год выпуска: 1986
Страна: США
Жанр: фэнтези, боевик, комедия, детектив, приключения

Продолжительность: 01:33:34
Перевод:
Профессиональный (многоголосый)
Профессиональный (двухголосый)
Авторский (одноголосый)
Режиссер: Майкл Ритчи
В ролях: Эдди Мёрфи (Chandler Jarrell), Дж. Л. Рит (The Golden Child), Чарльз Дэнс (Sardo Numspa), Шарлотта Льюис (Kee Nang), Виктор Вонг (The Old Man), Рэндал «Текс» Кобб (Til), Джеймс Хонг (Doctor Hong), Шакти (Kala), Тау Лого (Yu), Тайгер Чун Ли (Khan), Понс Маар (Fu), Питер Квон (Tommy Tong)
Описание:
Через каждую тысячу поколений на свет появляется идеальный ребенок, дитя, наделенное магической силой, чье предназначение - нести добро миру. Силы зла похитили ребенка... Теперь важнее всего на свете - найти его!
Рейтинг:

MPAA: PG-13 - Детям до 13 лет просмотр не желателен
Качество: WEB-DL 1080p
Формат: MKV
Видео: AVC, 1912x1072 (16:9), 5312 kbps, 23,976 fps, 0,108 bpp
Аудио №1: русский / AC3 / 5.1 / 48 kHz / 384 kbps / |MVO(iTunes)|
Аудио №2: русский / AC3 / 5.1 / 48 kHz / 384 kbps / |AVO(А.Гаврилов)|
Аудио №3: русский / AC3 / 5.1 / 48 kHz / 448 kbps / |AVO(А.Михалёв)|
Аудио №4: русский / AC3 / 2.0 / 48 kHz / 192 kbps / |AVO(В.Горчаков)|
Аудио №5: русский / AC3 / 2.0 / 48 kHz / 192 kbps / |DVO(Премьер Видео Фильм)|
Аудио №6: русский / AC3 / 2.0 / 48 kHz / 192 kbps / |MVO(ТВЦ)|
Аудио №7: русский / AC3 / 2.0 / 48 kHz / 256 kbps / |DVO(НТВ+)|
Аудио №8: английский / AC3 / 5.1 / 48 kHz / 384 kbps /
Навигация по главам: есть

General
Unique ID : 249121399167573622212198409547969182076 (0xBB6B094750ECDE15B7F14DF8BF4FB97C)
Complete name : D:\Proba\The.Golden.Child.1986.1080p.WEB-DL.4хMVO+3хAVO.mkv
Format : Matroska
Format version : Version 4 / Version 2
File size : 5.06 GiB
Duration : 1 h 33 min
Overall bit rate mode : Variable
Overall bit rate : 7 746 kb/s
Movie name : The.Golden.Child.1986.1080p.WEB-DL.DD5.1.H264-FGT
Encoded date : UTC 2017-04-03 14:59:13
Writing application : mkvmerge v10.0.0 ('To Drown In You') 64bit
Writing library : libebml v1.3.4 + libmatroska v1.4.5
Attachments : poster 1.jpg

Video
ID : 1
Format : AVC
Format/Info : Advanced Video Codec
Format profile : Main@L4
Format settings, CABAC : Yes
Format settings, ReFrames : 2 frames
Codec ID : V_MPEG4/ISO/AVC
Duration : 1 h 33 min
Bit rate mode : Variable
Bit rate : 5 313 kb/s
Maximum bit rate : 768 kb/s
Width : 1 912 pixels
Height : 1 072 pixels
Display aspect ratio : 16:9
Frame rate mode : Constant
Frame rate : 23.976 (23976/1000) FPS
Original frame rate : 25.000 FPS
Color space : YUV
Chroma subsampling : 4:2:0
Bit depth : 8 bits
Scan type : Progressive
Bits/(Pixel*Frame) : 0.108
Stream size : 3.47 GiB (69%)
Title : The.Golden.Child.1986.1080p.WEB-DL.DD5.1.H264-FGT
Language : English
Default : Yes
Forced : No

Audio #1
ID : 2
Format : AC-3
Format/Info : Audio Coding 3
Mode extension : CM (complete main)
Format settings, Endianness : Big
Codec ID : A_AC3
Duration : 1 h 33 min
Bit rate mode : Constant
Bit rate : 384 kb/s
Channel(s) : 6 channels
Channel positions : Front: L C R, Side: L R, LFE
Sampling rate : 48.0 kHz
Frame rate : 31.250 FPS (1536 spf)
Compression mode : Lossy
Stream size : 257 MiB (5%)
Title : AC3 5.1 @ 384 kbps MVO
Language : Russian
Default : Yes
Forced : No

Audio #2
ID : 3
Format : AC-3
Format/Info : Audio Coding 3
Mode extension : CM (complete main)
Format settings, Endianness : Big
Codec ID : A_AC3
Duration : 1 h 33 min
Bit rate mode : Constant
Bit rate : 384 kb/s
Channel(s) : 6 channels
Channel positions : Front: L C R, Side: L R, LFE
Sampling rate : 48.0 kHz
Frame rate : 31.250 FPS (1536 spf)
Compression mode : Lossy
Delay relative to video : 2 s 700 ms
Stream size : 257 MiB (5%)
Title : Авторский А.Гаврилов
Language : Russian
Default : No
Forced : No

Audio #3
ID : 4
Format : AC-3
Format/Info : Audio Coding 3
Mode extension : CM (complete main)
Format settings, Endianness : Big
Codec ID : A_AC3
Duration : 1 h 33 min
Bit rate mode : Constant
Bit rate : 448 kb/s
Channel(s) : 6 channels
Channel positions : Front: L C R, Side: L R, LFE
Sampling rate : 48.0 kHz
Frame rate : 31.250 FPS (1536 spf)
Compression mode : Lossy
Delay relative to video : 2 s 700 ms
Stream size : 299 MiB (6%)
Title : Авторский А.Михалёв
Language : Russian
Default : No
Forced : No

Audio #4
ID : 5
Format : AC-3
Format/Info : Audio Coding 3
Mode extension : CM (complete main)
Format settings, Endianness : Big
Codec ID : A_AC3
Duration : 1 h 33 min
Bit rate mode : Constant
Bit rate : 192 kb/s
Channel(s) : 2 channels
Channel positions : Front: L R
Sampling rate : 48.0 kHz
Frame rate : 31.250 FPS (1536 spf)
Compression mode : Lossy
Delay relative to video : 2 s 600 ms
Stream size : 128 MiB (2%)
Title : Авторский В.Горчаков
Language : Russian
Default : No
Forced : No

Audio #5
ID : 6
Format : AC-3
Format/Info : Audio Coding 3
Mode extension : CM (complete main)
Format settings, Endianness : Big
Codec ID : A_AC3
Duration : 1 h 33 min
Bit rate mode : Constant
Bit rate : 192 kb/s
Channel(s) : 2 channels
Channel positions : Front: L R
Sampling rate : 48.0 kHz
Frame rate : 31.250 FPS (1536 spf)
Compression mode : Lossy
Delay relative to video : 2 s 600 ms
Stream size : 128 MiB (2%)
Title : Двухголосый (Премьер Видео Фильм)
Language : Russian
Default : No
Forced : No

Audio #6
ID : 7
Format : AC-3
Format/Info : Audio Coding 3
Mode extension : CM (complete main)
Format settings, Endianness : Big
Codec ID : A_AC3
Duration : 1 h 33 min
Bit rate mode : Constant
Bit rate : 192 kb/s
Channel(s) : 2 channels
Channel positions : Front: L R
Sampling rate : 48.0 kHz
Frame rate : 31.250 FPS (1536 spf)
Compression mode : Lossy
Delay relative to video : 3 s 200 ms
Stream size : 128 MiB (2%)
Title : Многоголосый (ТВЦ)
Language : Russian
Default : No
Forced : No

Audio #7
ID : 8
Format : AC-3
Format/Info : Audio Coding 3
Mode extension : CM (complete main)
Format settings, Endianness : Big
Codec ID : A_AC3
Duration : 1 h 33 min
Bit rate mode : Constant
Bit rate : 256 kb/s
Channel(s) : 2 channels
Channel positions : Front: L R
Sampling rate : 48.0 kHz
Frame rate : 31.250 FPS (1536 spf)
Compression mode : Lossy
Delay relative to video : 2 s 700 ms
Stream size : 171 MiB (3%)
Title : Двухголосый (НТВ+)
Language : Russian
Default : No
Forced : No

Audio #8
ID : 9
Format : AC-3
Format/Info : Audio Coding 3
Mode extension : CM (complete main)
Format settings, Endianness : Big
Codec ID : A_AC3
Duration : 1 h 33 min
Bit rate mode : Constant
Bit rate : 384 kb/s
Channel(s) : 6 channels
Channel positions : Front: L C R, Side: L R, LFE
Sampling rate : 48.0 kHz
Frame rate : 31.250 FPS (1536 spf)
Compression mode : Lossy
Stream size : 257 MiB (5%)
Title : The.Golden.Child.1986.1080p.WEB-DL.DD5.1.H264-FGT
Language : English
Default : No
Forced : No

Menu
00:00:00.000 : en:Kidnapped
00:05:54.000 : en:Lost Children
00:10:46.000 : en:He's No Angel
00:13:10.000 : en:Already on the Case
00:17:11.000 : en:The Chosen One
00:22:04.000 : en:You Will Eat
00:25:12.000 : en:A Vision of the Child
00:27:10.000 : en:The Yellow Dragons
00:34:03.000 : en:Tommy Tong's
00:37:17.000 : en:The Ajanti Dagger
00:39:09.000 : en:An Attractive Offer
00:44:50.000 : en:A Dagger of a Child
00:47:47.000 : en:Tibet
00:55:38.000 : en:Stay on the Path
01:04:01.000 : en:So Little Understanding
01:07:53.000 : en:Viva Nepal!
01:11:05.000 : en:My Brother Numspa
01:13:37.000 : en:A Pure Heart
01:18:20.000 : en:Freeing the Child
01:26:18.000 : en:Sundown
01:29:36.000 : en:End Credits
pb.wtf



Скачать Золотой ребенок через торрент http://i1.imageban.ru/out/2017/04/04/2c75f3b97cf7ae82b4e2df1b74a85c81.jpg Скачать фильм Золотой ребенок через торрент бесплантно в хорошем качестве Описание: Через каждую тысячу поколений на свет появляется идеальный ребенок, дитя, наделенное магической силой, чье предназначение - нести ... 10 10 14
Торрент: Зарегистрирован [2017-04-04 03:12] · скачан: 105 раз
Статус: √ проверено
Размер: 5.06 GB
Как cкачать? Как скачать Золотой ребенок через торрент | qTorrent

28-11-2019 20:33  

Отключить всю рекламу на сайте

04-04-2017 06:20 Золотой ребенок Скачать торрент  

Я уже и забыл про этот классный фильм, который был у меня еще на видеокассете pb.wtf



    Дорогой пользователь! Огромная просьба, поблагодарите релизера, оцените раздачу и оставьте свои комментарий, если Вы скачали Золотой ребенок через торрент бесплатно! Внесите свою лепту в развитие PiratBit!
    Комментировать посты могут только пользователи прошедшие не сложную регистрацию
    Показать сообщения:    

    Золотой ребенок через торрент
    Скачать бесплатно Золотой ребенок
    Золотой ребенок скачать торрент
    Золотой ребенок смотреть онлайн
    Cкачать фильм Золотой ребенок бесплатно
    Золотой ребенок скачать торрент в хорошем качестве
    Золотой ребенок смотреть онлайн бесплатно в хорошем качестве


    Вы не можете начинать темы
    Вы не можете отвечать на сообщения
    Вы не можете редактировать свои сообщения
    Вы не можете удалять свои сообщения
    Вы не можете голосовать в опросах
    Вы не можете прикреплять файлы к сообщениям
    Вы можете скачивать файлы