Присоединяйтесь к нам в Telegram!, здесь всегда актуальный адрес сайта, оперативная поддержка и многое другое!!

>

5.9

iTunes

7.4

iTunes

9.4

1 сезон

1

7.4

2 сезон

7.2

iTunes

7.3

1 сезон

13

6.1

iTunes

8.3

GOG

30

ULTIMATE

pack

9.9

Лицензия

ВАЖНО

ИГРА 18+

pack

7.3

RePack

MK11

7.7

RePack

jed

7.8

RePack

fifa19

8.5

RePack

RDR2

RePack

NEED FOR SPEED™ PAYBACK

5 сезон

9 сезон

Бесстыжие 9 сезон

Все сериалы

все сериалы на PB.wtf

RePack

FAR CRY 5

Anonymous, добрый вечер, мы катастрофически не успеваем собрать деньги на оплату серверов, помогите нам пожалуйста 5,10,15р., для нас важна любая помощь . В качестве благодарности мы отключим Вам всю рекламу на сайте (укажите свой ник в строку Ваше имя)!

×
  
Magnet ссылка

Даурия (Виктор Трегубович) [1971, СССР, драма, мелодрама, приключения, история, DVDRip от AVP Studio] pb.wtf

Даурия через торрент pb.wtf

Размер: 2.18 GB | Добавлен: 4 года 7 мес. назад | Торрент скачан:19 раз
Смотреть онлайн Даурия | Скачать    Ребята, помогите собрать деньги на оплату серверов!!!

04-04-2017 08:12 Даурия Скачать торрент  

Даурия
Страна: СССР
Производство: Ленфильм

Жанр: драма, мелодрама, приключения, история
Год выпуска: 1971
Продолжительность: 02:52:07 (01:26:05 + 01:26:02)

Перевод: Не требуется
Cубтитры: нет
Оригинальная аудиодорожка: русский

Режиссер: Виктор Трегубович

В ролях:
Аркадий Трусов, Пётр Шелохонов, Вера Кузнецова, Виталий Соломин, Василий Шукшин, Женя Малянцев, Фёдор Одиноков, Любовь Малиновская, Светлана Головина, Ефим Копелян, Борис Аракелов, Дмитрий Масанов, Виктор Павлов, Владимир Лосев, Юрий Соломин, Михаил Кокшенов, Всеволод Кузнецов, Игорь Ефимов, Юрий Дубровин, Георгий Штиль, Игорь Дмитриев...
Об актёрах подробней

Описание:
Широкоформатный фильм. Экранизация одноименного романа Константина Седых.
Хроника жизни небольшого поселка в Забайкалье накануне первой мировой войны и в годы Октябрьской революции.
Рушатся вековые устои, происходит расслоение масс, в результате которого одни идут воевать за революцию, другие - против нее.
Главный герой - молодой казак Роман Улыбин. Поначалу этот беззаботный сорвиголова занят только одним вопросом: выйдет за него замуж любимая девушка Дашутка или ее отдадут за купеческого сына Алешку. Однако постепенно парень замечает, что мир вокруг изменился, люди воюют за равенство и социальную справедливость, и он, бравый казак, не может остаться в стороне…

Источник: 2xDVD9 R5
Качество видео: DVDRip
Формат видео: AVI

Видео: 688x272 (2,529:1), 25 fps, XviD ~ 1356 kbps avg, 0.290 bit/pixel
Аудио: 48 kHz, Dolby Digital AC3 5.1, 448 kbps Русский
Аудио: 48 kHz, Dolby Digital AC3 5.1, 448 kbps Английский Скачать
Аудио: 48 kHz, Dolby Digital AC3 5.1, 448 kbps Французский Скачать

Раздача от:
Общее
Полное имя : Dauriya.1971.DVDRip_[New-team]_by_AVP_Studio\Серия 01.avi
Формат : AVI
Формат/Информация : Audio Video Interleave
Размер файла : 1,09 Гбайт
Продолжительность : 1 ч. 26 м.
Общий поток : 1813 Кбит/сек
Программа кодирования : VirtualDubMod 1.5.10.3 | www.virtualdub-fr.org || (build 2550/release)
Библиотека кодирования : VirtualDubMod build 2550/release

Видео
Идентификатор : 0
Формат : MPEG-4 Visual
Профиль формата : Advanced Simple@L5
Параметр BVOP формата : 1
Параметр QPel формата : Нет
Параметр GMC формата : Без точки перехода
Параметр матрицы формата : Выборочная
Идентификатор кодека : XVID
Идентификатор кодека/Подсказка : XviD
Продолжительность : 1 ч. 26 м.
Битрейт : 1356 Кбит/сек
Ширина : 688 пикселей
Высота : 272 пикселя
Соотношение сторон : 2,529
Частота кадров : 25,000 кадров/сек
Цветовое пространство : YUV
Субдискретизация насыщенности : 4:2:0
Битовая глубина : 8 бит
Тип развёртки : Прогрессивная
Метод сжатия : С потерями
Бит/(Пиксели*Кадры) : 0.290
Размер потока : 835 Мбайт (75%)
Библиотека кодирования : XviD 73

Аудио
Идентификатор : 1
Формат : AC-3
Формат/Информация : Audio Coding 3
Параметр Endianness формата : Big
Идентификатор кодека : 2000
Продолжительность : 1 ч. 26 м.
Вид битрейта : Постоянный
Битрейт : 448 Кбит/сек
Каналы : 6 каналов
Расположение каналов : Front: L C R, Side: L R, LFE
Частота : 48,0 КГц
Частота кадров : 31,250 кадров/сек (1536 spf)
Битовая глубина : 16 бит
Метод сжатия : С потерями
Размер потока : 276 Мбайт (25%)
Выравнивание : Разделение по промежуткам
Продолжительность промежутка : 40 мс. (1,00 видеокадр)
Время предзагрузки промежутка : 500 мс
pb.wtf



Скачать Даурия через торрент http://s12.radikal.ru/i185/1704/5b/bed97b0fe22f.png Скачать, смотреть онлайн Даурия бесплантно в хорошем качестве Описание:Широкоформатный фильм. Экранизация одноименного романа Константина Седых.Хроника жизни небольшого поселка в Забайкалье накануне ... 5 10 1
Info! Золотая раздача, скачанное не засчитывается.
Торрент: Зарегистрирован [2017-04-04 08:12] · скачан: 19 раз
Статус: √ проверено
Размер: 2.18 GB
Как cкачать? Как скачать Даурия через торрент | UTorrent

% Раздел Тема Автор DL S | L
Рок, Панк, Альтернатива (mp3) [ 126 MB ] Калинов Мост - Даурия 2018 / MP3 / 320 kbps / Rock oleg8 Скачать
1 | 0
Кино СССР [ 2.18 GB ] Даурия [1971 СССР история DVDRip-AVC от AVP Studio] AVP Studio Скачать
1 | 0
Кино СССР [ 1.09 GB ] Даурия [1971 СССР история DVDRip от AVP Studio] AVP Studio Скачать
1 | 0

28-11-2019 20:33  

Отключить всю рекламу на сайте

    Дорогой пользователь! Огромная просьба, поблагодарите релизера, оцените раздачу и оставьте свои комментарий, если Вы скачали Даурия через торрент бесплатно!
    Комментировать посты могут только пользователи прошедшие не сложную регистрацию
    Показать сообщения:    

    Даурия через торрент
    Скачать бесплатно Даурия
    Даурия скачать торрент
    Даурия смотреть онлайн
    Cкачать фильм Даурия бесплатно
    Даурия скачать торрент в хорошем качестве
    Даурия смотреть онлайн бесплатно в хорошем качестве


    Вы не можете начинать темы
    Вы не можете отвечать на сообщения
    Вы не можете редактировать свои сообщения
    Вы не можете удалять свои сообщения
    Вы не можете голосовать в опросах
    Вы не можете прикреплять файлы к сообщениям
    Вы можете скачивать файлы