Ссылка на приватное зеркало нашего сайта всего за 1$. Внимание количество ограничено!!!

2 сезон

iTunes

1 сезон

1

iTunes

iTunes

iTunes

1 сезон

RePack

30

ИГРА 18+

pack

ВАЖНО

!!Акция!!

Alien_RageХит недели

RePack

MK11
pack

Забери бонус

RePack

jed

!!Акция!!

Alien_Rage

RePack

fifa19

RePack

Assassins Creed: Odyssey

RePack

NEED FOR SPEED™ PAYBACK

4 сезон

9 сезон

Бесстыжие 9 сезон

Все сериалы

все сериалы на PB.wtf

RePack

FAR CRY 5
  

Следствие любви / Серия 1-32 из 32 (Андрей Мармонтов) [2016 г., Детектив, WEB-DLRip] pb.wtf

Следствие любви через торрент pb.wtf

Размер: 17.02 GB | Добавлен: 3 года 5 мес. назад | Торрент скачан:83 раза
Скачать  

04-04-2017 10:22 Следствие любви Скачать торрент  

Следствие любви
Год выпуска: 2016
Страна: Россия, Украина, Star Media
Жанр: Детектив
Продолжительность: 32 x ~ 00:45:00
Субтитры: нет

Режиссер: Андрей Мармонтов

В ролях: Нонна Гришаева, Александр Мохов, Игорь Лифанов, Елена Санаева, Леонид Тимцуник, Антон Батырев, Сергей Черданцев, Арина Данилова, Максим Сапрыкин (II), Иса Новиков, Сергей Марухин, Христина Полуянова, Семён Шемес, Денис Варенов, Ольга Михайлова (IV), Марина Кондратьева (II), Владислав Павлов, Надежда Азоркина, Ксения Самойлова, Анна Липко, Михаил Половенко, Александр Пугачёв (II), Анастасия Дубровина, Дмитрий Сарансков, Игорь Стаценко, Сергей Самородов, Алексей Овсянников, Александр Левин (II), Евгений Кушпель, Катарина Погорелова, Елена Ященко, Ирина Крутик, Янина Малинчик, Ирина Нечаева, Михаил Куряев, Ян Ильвес

Описание: В жизни всегда есть место любви и романтике, особенно, когда в центре сюжета неординарная женщина. Надежда Полякова — мать троих детей и талантливый следователь. Дети – смысл её жизни, но работа — её страсть! Разрываясь между домом и убойным отделом, Надежда подходит к расследованиям нестандартно: интуитивно вычисляет главное и строит на этом свою версию. Бывший муж героини – подполковник Поляков – тоже работает в полиции. Экс-супругу не нравится, что Надежда вернулась на службу, к тому же он замечает, что ее отношения с новым руководителем – майором Крюковым – начинают выходить за рамки рабочих. Сочетание двух сильных характеров, юмор и взаимная симпатия помогают Поляковой и Крюкову бороться с преступностью и идти навстречу своим чувствам.

Качество: WEB-DLRip
Формат: AVI
Видео кодек: XviD
Аудио кодек: AC3
Видео: XviD, ~ 1650 Кбит/с, 720x400 ,25 fps
Аудио: AC3, 2 ch, 192 Кбит/с,48 kHz




General
Complete name : H:\релизы.торрентфайл\Sledstvije.liubvi.2017.WEB-DLRip.Files-x\01.Sledstvije.liubvi.2017.WEB-DLRip.Files-x.avi
Format : AVI
Format/Info : Audio Video Interleave
File size : 548 MiB
Duration : 40mn 42s
Overall bit rate : 1 882 Kbps
Writing application : VirtualDubMod 1.5.10.3 | www.virtualdub-fr.org || (build 2550/release)
Writing library : VirtualDubMod build 2550/release

Video
ID : 0
Format : MPEG-4 Visual
Format profile : Advanced Simple@L5
Format settings, BVOP : 1
Format settings, QPel : No
Format settings, GMC : No warppoints
Format settings, Matrix : Custom
Codec ID : XVID
Codec ID/Hint : XviD
Duration : 40mn 42s
Bit rate : 1 680 Kbps
Width : 720 pixels
Height : 400 pixels
Display aspect ratio : 16:9
Frame rate : 25.000 fps
Color space : YUV
Chroma subsampling : 4:2:0
Bit depth : 8 bits
Scan type : Progressive
Compression mode : Lossy
Bits/(Pixel*Frame) : 0.233
Stream size : 489 MiB (89%)
Writing library : XviD 73

Audio
ID : 1
Format : AC-3
Format/Info : Audio Coding 3
Mode extension : CM (complete main)
Format settings, Endianness : Big
Codec ID : 2000
Duration : 40mn 42s
Bit rate mode : Constant
Bit rate : 192 Kbps
Channel(s) : 2 channels
Channel positions : Front: L R
Sampling rate : 48.0 KHz
Bit depth : 16 bits
Compression mode : Lossy
Stream size : 55.9 MiB (10%)
Alignment : Split accross interleaves
Interleave, duration : 40 ms (1.00 video frame)
Interleave, preload duration : 500 ms

Внимание! Раздача ведётся путём добавления новых серий; при каждом добавлении создётся новый торрент. Чтобы начать докачку новой серии, пользователям необходимо сделать следующее:
  • Остановить скачивание,
  • Удалить старый торрент у себя из клиента (старые серии удалять не надо),
  • Скачать новый торрент и запустить его у себя в клиенте вместо старого, при этом указать клиенту путь в старую папку куда и должно происходить скачивание новых серий.
Ваш клиент при этом должен произвести хеширование (проверку) старой папки (если не производит сам - помогите ему сделать это), и будет докачивать только те серии которых у вас ещё нет. Старые серии при этом не удаляются, а продолжают раздаваться!

Eсли вы уже удалили старые серии, то предотвратить повторную закачку старых серий можно, отжав галочку в соответсвующих местах при запуске нового торрента. По возможности, желательно не удалять старые серии как можно дольше чтобы релизёр не столько продолжал раздавать старые серии, а смог сконцентрироваться на новых.
pb.wtf



Скачать Следствие любви через торрент http://pic1.kartinco.top/images/11/p8msx.jpg Скачать фильм Следствие любви через торрент бесплантно в хорошем качестве Описание: В жизни всегда есть место любви и романтике, особенно, когда в центре сюжета неординарная женщина. Надежда Полякова — мать троих ... 7.8 10 9
Info! Золотая раздача, скачанное не засчитывается.
Торрент: Зарегистрирован [2017-04-27 18:36] · скачан: 83 раз
Статус: √ проверено
Размер: 17.02 GB
Как cкачать? Как скачать Следствие любви через торрент | qTorrent

% Раздел Тема Автор DL S | L
Наши сериалы [ 14.04 GB ] Следствие любви / Серии: 1-32 из 32 [2016 SATRip-AVC] aleksan55 Скачать
1 | 0


Последний раз редактировалось: oleg8 (2017-04-27 18:36), всего редактировалось 14 раз(а)

28-11-2019 20:33  

Отключить всю рекламу на сайте

04-04-2017 22:48 Следствие любви Скачать торрент  

добавленна 3-4 серии.pb.wtf



06-04-2017 02:55 Следствие любви Скачать торрент  

добавленна 5-6 серия.pb.wtf



07-04-2017 02:52 Следствие любви Скачать торрент  

добавленна 7-8 серии.pb.wtf



11-04-2017 03:11 Следствие любви Скачать торрент  

добавил 9-10 серии.pb.wtf



12-04-2017 03:43 Следствие любви Скачать торрент  

добавил 11-12 серии.pb.wtf



12-04-2017 23:12 Следствие любви Скачать торрент  

добавил 13-14 серии.pb.wtf



14-04-2017 02:36 Следствие любви Скачать торрент  

Добавил 15-16 серии.pb.wtf



18-04-2017 02:44 Следствие любви Скачать торрент  

добавленна 19-20 серии.pb.wtf



26-04-2017 11:55 Следствие любви Скачать торрент  

добавленно по 28 серию.pb.wtf



27-04-2017 18:37 Следствие любви Скачать торрент  

добавил до 32 серии.Сериал весь.pb.wtf



    Дорогой пользователь! Огромная просьба, поблагодарите релизера, оцените раздачу и оставьте свои комментарий, если Вы скачали Следствие любви через торрент бесплатно! Внесите свою лепту в развитие PiratBit!
    Комментировать посты могут только пользователи прошедшие не сложную регистрацию
    Показать сообщения:    

    Следствие любви через торрент
    Скачать бесплатно Следствие любви
    Следствие любви скачать торрент
    Следствие любви смотреть онлайн
    Cкачать фильм Следствие любви бесплатно
    Следствие любви скачать торрент в хорошем качестве
    Следствие любви смотреть онлайн бесплатно в хорошем качестве


    Вы не можете начинать темы
    Вы не можете отвечать на сообщения
    Вы не можете редактировать свои сообщения
    Вы не можете удалять свои сообщения
    Вы не можете голосовать в опросах
    Вы не можете прикреплять файлы к сообщениям
    Вы можете скачивать файлы