Доктор Стрэндж

Лицензия

Добыча

Дубляж

Дом дракона

1 сезон

Тор

Дубляж

В эфире

Дубляж

Там, где раки поют

MVO

Властелин колец

1 сезон

Ultimate

pack

Рекомендуем

30

Пиратка

ВАЖНО

ВАЖНО

Ghostwire

Пиратка

jed

RePack

nioh2

RePack

RDR2

RePack

NEED FOR SPEED™ PAYBACK

RePack

скачать торрент

Кинопоиск HD

Острые козырьки 6 сезон

6 сезон

FAR CRY 6

RePack

скачать торрент

Лицензия

скачать торрент

MVO

1

1 сезон

скачать торрент

1 сезон

скачать торрент

Лицензия

  

Deep Purple: Phoenix Rising [2011 г., Концертное видео, Музыка, BDRip]

Deep Purple: Phoenix Rising через торрент pb.wtf

Размер: 589 MB | Добавлен: 5 лет 7 мес. назад | Торрент скачан:38 раз
| Скачать   

04-04-2017 16:22 Deep Purple: Phoenix Rising Скачать торрент  

Deep Purple: Phoenix Rising (2011)

Год выпуска: 2011
Страна: Великобритания
Жанр: Концертное видео, Музыка
Продолжительность: 00:31:06
Видео с Blu-Ray "Phoenix Rising" представляет собой запись с концерта 15 декабря 1975 года, состоявшегося на арене «Будокан» (Токио)... Deep Purple — британская рок-группа, образованная в феврале 1968 года (сначала — под названием Roundabout) в Хартфорде, Англия, и считающаяся одной из самых заметных и влиятельных в «тяжёлой музыке» 1970-х годов. Принципиальным отличием группы "Deep Purple" от многих других, что позволило ей войти в некую когорту избранных, является создание собственного языка в роке, на котором теперь разговаривают многие другие музыканты, и который сами "Deep Purple" продолжают развивать...

1. Burn
2. Love Child
3. Smoke On The Water
4. You Keep On Moving
5. Highway Star



Качество: BDRip
Формат: AVI
Видео кодек: XviD
Аудио кодек: AC3
Видео: XviD, build 64 , 704 x 528 (1.33:1); 23.976 fps; ~2190 kbps; 0.25 bit/pixel
Аудио#1: 48 kHz, AC3 Dolby Digital, 3/2 (L,C,R,l,r) + LFE ch, ~448.00 kbps avg
I:\5 al\Deep.Purple.Phoenix.Rising.2011.ENG.BDRip.XviD.AC3.-HQ-ViDEO.avi
General
Complete name : I:\5 al\Deep.Purple.Phoenix.Rising.2011.ENG.BDRip.XviD.AC3.-HQ-ViDEO.avi
Format : AVI
Format/Info : Audio Video Interleave
File size : 589 MiB
Duration : 31mn 5s
Overall bit rate : 2 648 Kbps
Movie name : Deep.Purple.Phoenix.Rising.2011.ENG.BDRip.XviD.AC3.-HQ-ViDEO
Director : Overlord
Writing application : VirtualDubMod 1.5.10.1 (build 2366/release)
Copyright : HQ-ViDEO.ORG
Comment : 26/08/11
Video #0
ID : 0
Format : MPEG-4 Visual
Format profile : Advanced [email protected]
Format settings, BVOP : 2
Format settings, QPel : No
Format settings, GMC : No warppoints
Format settings, Matrix : Custom
Codec ID : XVID
Codec ID/Hint : XviD
Duration : 31mn 5s
Bit rate : 2 191 Kbps
Width : 704 pixels
Height : 528 pixels
Display aspect ratio : 4:3
Frame rate : 23.976 fps
Color space : YUV
Chroma subsampling : 4:2:0
Bit depth : 8 bits
Scan type : Progressive
Compression mode : Lossy
Bits/(Pixel*Frame) : 0.246
Stream size : 487 MiB (83%)
Writing library : XviD 64
Audio #1
ID : 1
Format : AC-3
Format/Info : Audio Coding 3
Mode extension : CM (complete main)
Format settings, Endianness : Big
Codec ID : 2000
Duration : 31mn 5s
Bit rate mode : Constant
Bit rate : 448 Kbps
Channel(s) : 6 channels
Channel positions : Front: L C R, Side: L R, LFE
Sampling rate : 48.0 KHz
Bit depth : 16 bits
Compression mode : Lossy
Stream size : 99.7 MiB (17%)
Alignment : Split accross interleaves
Interleave, duration : 42 ms (1.00 video frame)
Interleave, preload duration : 500 ms




Скачать Deep Purple: Phoenix Rising через торрент http://i013.radikal.ru/1704/8b/80ec4cf86b38.jpg Скачать, смотреть онлайн Deep Purple: Phoenix Rising [2011 г., Концертное видео, Музыка, BDRip] бесплантно в хорошем качестве Описание: Видео с Blu-Ray "Phoenix Rising" представляет собой запись с концерта 15 декабря 1975 года, состоявшегося на арене «Будокан» ... 9.8 10 4
Торрент: Зарегистрирован [2017-04-04 16:22] · скачан: 38 раз
Статус: √ проверено
Размер: 589 MB
Как cкачать? Как скачать Deep Purple: Phoenix Rising через торрент | UTorrent

% Раздел Тема Автор DL S | L
Архив (Видео, DVD Video, HD Video) [ 4.33 GB ] Deep Purple - Phoenix Rising. [2011 г., Hard Rock., DVD5 | | Deep Purple - Phoenix Rising. [2011 г., Hard Rock., DVD5 (сжатый [email protected] Скачать
1 | 0

28-11-2019 20:33  


Отключить вcю реклaмy на сайте, в т.ч. и в плеере онлайн просмотра!

05-04-2017 10:34 Deep Purple: Phoenix Rising Скачать торрент  

Azat17, перезалил скриншоты, т.к. они не соответствовали заявленному разрешению.

Azat17 писал(а):

Видео: 704 x 528

скриншоты у вас были 500х375.
За раздачу спасибо.



    Дорогой пользователь! Огромная просьба, поблагодарите релизера, оцените раздачу и оставьте свои комментарий, если Вы скачали Deep Purple: Phoenix Rising через торрент бесплатно!!
    Комментировать посты могут только пользователи прошедшие не сложную регистрацию
    Показать сообщения:    


    Deep Purple: Phoenix Rising через торрент
    Скачать бесплатно Deep Purple: Phoenix Rising
    Deep Purple: Phoenix Rising скачать торрент
    Deep Purple: Phoenix Rising смотреть онлайн
    Cкачать фильм Deep Purple: Phoenix Rising бесплатно
    Deep Purple: Phoenix Rising скачать торрент в хорошем качестве
    Deep Purple: Phoenix Rising смотреть онлайн бесплатно в хорошем качестве
    Вы не можете начинать темы
    Вы не можете отвечать на сообщения
    Вы не можете редактировать свои сообщения
    Вы не можете удалять свои сообщения
    Вы не можете голосовать в опросах
    Вы не можете прикреплять файлы к сообщениям
    Вы можете скачивать файлы
    Deep Purple: Phoenix Rising [2011 г., Концертное видео, Музыка, BDRip] смотреть онлайн, скачать торрент picoco.icu