Ссылка на приватное зеркало нашего сайта всего за 1$. Внимание количество ограничено!!!

2 сезон

iTunes

1 сезон

1

2 сезон

2 сезон

iTunes

1 сезон

RePack

30

Новинка

ВАЖНО

ИГРА 18+

pack

RePack

MK11
pack

Забери бонус

RePack

jed

!!Акция!!

Alien_Rage

RePack

fifa19

RePack

Assassins Creed: Odyssey

RePack

NEED FOR SPEED™ PAYBACK

4 сезон

9 сезон

Бесстыжие 9 сезон

Все сериалы

все сериалы на PB.wtf

RePack

FAR CRY 5
  

Побег: Продолжение / Prison Break: Sequel / Сезон: 5 / Серии: 1-9 из 9 (Нельсон МакКормик ) [2017 , боевик, триллер, драма, WEB-DL 720p] MVO [FOX] pb.wtf

Побег: Продолжение через торрент pb.wtf

Размер: 12.58 GB | Добавлен: 3 года 5 мес. назад | Торрент скачан:161 раз
Скачать  

05-04-2017 21:33 Побег: Продолжение Скачать торрент  

Побег: Продолжение / Prison Break: Sequel

Год выпуска: 2017

Страна: США, Великобритания
Выпущено: США, Adelstein-Parouse Productions, Original Television, 20th Century Fox Television
Жанр: боевик, триллер, драма, криминал, детектив

Продолжительность: 00:43:00 (серия)
Перевод: Профессиональный (многоголосый закадровый) [FOX]
Режиссер: Нельсон МакКормик , Майя Врвило , Гай Ферленд
В ролях: Рокмонд Данбар (Benjamin Miles «C-Note» Franklin), Роберт Неппер (Theodore «T-Bag» Bagwell), Вентворт Миллер (Michael Scofield), Амори Ноласко (Fernando Sucre), Доминик Пёрселл (Lincoln Burrows), Сара Уэйн Кэллис (Dr. Sara Tancredi), Марина Бенедикт (A&W), Кристиан Майкл Купер (Mike Scofield), Марк Фойерстин (Jacob Anton Ness), Стив Музакис (Van Gogh), Эмин Эль Гамин (Cyclops), Кертис Льюм (Henry Kishida)
Описание:
Линкольн и Сара объединяются после того, как выяснилось, что Майкл все еще жив и находится в йеменской тюрьме. Они планируют масштабный побег с помощью друзей.
Рейтинг:
rating
Качество: WEB-DL 720p
Формат: MKV
Видео: MPEG-4 AVC , 1280x718, 23.976 fps, 3500 Кбит/с
Аудио №1: русский / AC3, 2 ch,, 192 Кбит/с 48 kHz
Аудио №2: английский / AC3, 6 ch,, 384 Кбит/с 48 kHz
General
Unique ID : 231764778013182433084745897327951634143 (0xAE5C45C94F28B9B1BE744B822EE85EDF)
Complete name :Prison Break.S05E01.720p.FOX.mkv
Format : Matroska
Format version : Version 4 / Version 2
File size : 1.39 GiB
Duration : 43 min
Overall bit rate : 4 597 kb/s
Encoded date : UTC 2017-04-05 17:00:50
Writing application : mkvmerge v8.3.0 ('Over the Horizon') 64bit
Writing library : libebml v1.3.1 + libmatroska v1.4.2

Video
ID : 1
Format : AVC
Format/Info : Advanced Video Codec
Format profile : High@L3.1
Format settings, CABAC : No
Format settings, ReFrames : 2 frames
Codec ID : V_MPEG4/ISO/AVC
Duration : 43 min
Bit rate : 4 019 kb/s
Width : 1 280 pixels
Height : 718 pixels
Display aspect ratio : 16:9
Frame rate mode : Constant
Frame rate : 23.976 (24000/1001) FPS
Color space : YUV
Chroma subsampling : 4:2:0
Bit depth : 8 bits
Scan type : Progressive
Bits/(Pixel*Frame) : 0.182
Stream size : 1.22 GiB (87%)
Language : English
Default : Yes
Forced : No
Color range : Limited
Color primaries : BT.709
Transfer characteristics : BT.709
Matrix coefficients : BT.709

Audio #1
ID : 2
Format : AC-3
Format/Info : Audio Coding 3
Mode extension : CM (complete main)
Format settings, Endianness : Big
Codec ID : A_AC3
Duration : 43 min
Bit rate mode : Constant
Bit rate : 192 kb/s
Channel(s) : 2 channels
Channel positions : Front: L R
Sampling rate : 48.0 kHz
Frame rate : 31.250 FPS (1536 spf)
Compression mode : Lossy
Stream size : 59.5 MiB (4%)
Language : Russian
Default : Yes
Forced : No

Audio #2
ID : 3
Format : AC-3
Format/Info : Audio Coding 3
Mode extension : CM (complete main)
Format settings, Endianness : Big
Codec ID : A_AC3
Duration : 43 min
Bit rate mode : Constant
Bit rate : 384 kb/s
Channel(s) : 6 channels
Channel positions : Front: L C R, Side: L R, LFE
Sampling rate : 48.0 kHz
Frame rate : 31.250 FPS (1536 spf)
Compression mode : Lossy
Stream size : 119 MiB (8%)
Language : English
Default : No
Forced : No





pb.wtf



Скачать Побег: Продолжение через торрент http://i90.fastpic.ru/big/2017/0330/16/d6357a00ed7cef09a2820ee367f4a616.png Скачать фильм Побег: Продолжение через торрент бесплантно в хорошем качестве Описание: Линкольн и Сара объединяются после того, как выяснилось, что Майкл все еще жив и находится в йеменской тюрьме. Они планируют ... 9.6 10 16
Торрент: Зарегистрирован [2017-06-03 11:02] · скачан: 161 раз
Статус: √ проверено
Размер: 12.58 GB
Как cкачать? Как скачать Побег: Продолжение через торрент | qTorrent

% Раздел Тема Автор DL S | L
Зарубежные сериалы [ 13.95 GB ] Побег / Побег: Продолжение / Prison Break: Sequel / Сезон: 5 / Серии 1-9 из 9 [2017 WEB-DL 720p] MVO [NewStudio] GEKADOL Скачать
1 | 0
Зарубежные сериалы [ 35.65 GB ] Побег: Продолжение / Prison Break: Sequel / Сезон: 5 / Серии: 1-9 из 9 [2017 WEBRip 1080p] [MVO] + [MVO] killermax2013 Скачать
1 | 0
Зарубежные сериалы [ 3.88 GB ] Побег: Продолжение / Prison Break: Sequel / Сезон: 5 / Серии: 1-9 из 9 [2017 HDTVRip] [MVO] killermax2013 Скачать
1 | 0
Зарубежные сериалы [ 4.4 GB ] Побег: Продолжение / Prison Break: Sequel / Сезон 5 / Серии 1-9 из 9 [2017 WEB-DLRip] MVO [FOX] bober100 Скачать
1 | 0


Последний раз редактировалось: batonchik (2017-06-03 11:03), всего редактировалось 7 раз(а)

28-11-2019 20:33  

Отключить всю рекламу на сайте

05-04-2017 23:34 Побег: Продолжение Скачать торрент  

едрить маадрить ну ничего себе , продолжение сняли опупетьpb.wtf



06-04-2017 01:53 Побег: Продолжение Скачать торрент  

что !? такого супер тягомотного сериала я не встречал еще, продюсеры уже не знают как его растянуть и сериал превратился в фантастические приключения, в которых отсутствует логика и здравый смысл...в топку, я последний еле досмотрел сезон, а точнее последнюю серию только глянул потому шо реал за*б*ло!!!! если у вас присутствует хоть капля мозга то категорически не рекомендую его смотреть с первого сезона, остальные уже обреченыpb.wtf



06-04-2017 02:55 Побег: Продолжение Скачать торрент  

pb.wtf



06-04-2017 04:45 Побег: Продолжение Скачать торрент  

maugli89 писал(а):

что !? такого супер тягомотного сериала я не встречал еще, продюсеры уже не знают как его растянуть и сериал превратился в фантастические приключения, в которых отсутствует логика и здравый смысл...в топку, я последний еле досмотрел сезон, а точнее последнюю серию только глянул потому шо реал за*б*ло!!!! если у вас присутствует хоть капля мозга то категорически не рекомендую его смотреть с первого сезона, остальные уже обречены

согласен, сериал затянули на столько что в последнем сезоне продюссер походу сам запутался о чём был фильм, но так как всего 9 серий будет в этом сезоне, я думаю можно глянуть, так, чисто для успокоения души так сказать))))pb.wtf



06-04-2017 12:49 Побег: Продолжение Скачать торрент  

Как он, черд возьми жив то оказался? это уже не в какие рамки.pb.wtf



13-04-2017 18:38 Побег: Продолжение Скачать торрент  

+5-6pb.wtf





Последний раз редактировалось: batonchik (2017-05-11 16:52), всего редактировалось 1 раз

21-04-2017 18:07 Побег: Продолжение Скачать торрент  

норм кинцо!pb.wtf



18-05-2017 18:02 Побег: Продолжение Скачать торрент  

+7pb.wtf



03-06-2017 11:03 Побег: Продолжение Скачать торрент  

+8-9pb.wtf



    Дорогой пользователь! Огромная просьба, поблагодарите релизера, оцените раздачу и оставьте свои комментарий, если Вы скачали Побег: Продолжение через торрент бесплатно! Внесите свою лепту в развитие PiratBit!
    Комментировать посты могут только пользователи прошедшие не сложную регистрацию
    Показать сообщения:    

    Побег: Продолжение через торрент
    Скачать бесплатно Побег: Продолжение
    Побег: Продолжение скачать торрент
    Побег: Продолжение смотреть онлайн
    Cкачать фильм Побег: Продолжение бесплатно
    Побег: Продолжение скачать торрент в хорошем качестве
    Побег: Продолжение смотреть онлайн бесплатно в хорошем качестве


    Вы не можете начинать темы
    Вы не можете отвечать на сообщения
    Вы не можете редактировать свои сообщения
    Вы не можете удалять свои сообщения
    Вы не можете голосовать в опросах
    Вы не можете прикреплять файлы к сообщениям
    Вы можете скачивать файлы