2 сезон

iTunes

1 сезон

1

iTunes

iTunes

iTunes

1 сезон

RePack

30

ИГРА 18+

pack

ВАЖНО

!!Акция!!

Alien_RageХит недели

RePack

MK11
pack

Забери бонус

RePack

jed

!!Акция!!

Alien_Rage

RePack

fifa19

RePack

Assassins Creed: Odyssey

RePack

NEED FOR SPEED™ PAYBACK

4 сезон

9 сезон

Бесстыжие 9 сезон

Все сериалы

все сериалы на PB.wtf

RePack

FAR CRY 5
  

День Святого Валентина / Valentine's Day (Гэрри Маршалл) [2010, мелодрама, комедия, BDRip 1080p by msltel] DUB pb.wtf

День Святого Валентина через торрент pb.wtf

Размер: 13.65 GB | Добавлен: 3 года 6 мес. назад | Торрент скачан:30 раз
Скачать  

06-04-2017 06:08 День Святого Валентина Скачать торрент  

Название: День Святого Валентина
Оригинальное название: Valentine's Day
Год выпуска: 2010
Страна: США
Жанр: мелодрама, комедия
Продолжительность: 02:04:38
Перевод: дублированный

Режиссёр: Гэрри Маршалл

В ролях: Джессика Альба, Кэти Бэйтс, Джессика Бил, Брэдли Купер, Эрик Дэйн, Патрик Демпси, Гектор Элизондо, Джейми Фокс, Дженнифер Гарнер, Тофер Грэйс

Описание: Судьбы многих влюблённых и одиноких сердец в Лос-Анджелесе переплетаются в ожидании одного единственного дня — Дня Святого Валентина...



Качество: BDRip 1080p
Формат: MKV
Видео: MPEG-4 AVC, 13.8 Mбит/с, 1920x1080, 23,976 кадра/с
Аудио 1: русский, AC3, 384 kbps, 6 ch, 48 kHz [дублированный]
Аудио 2: английский, DTS, 1509 kbps, 6 ch, 48 kHz [оригинал]
Субтитры 1: русские
Субтитры 2: русские (надписи)
Субтитры 3: английские (для слабослышащих)
Имеются неименованные главы/чаптеры.
Общее
Уникальный идентификатор : 205757113137690055867303570464821566386 (0x9ACB60E86849141B8D7C2989CE095BB2)
Полное имя : D:\Video\День Святого Валентина.2010.BDRip.1080p by msltel.mkv
Формат : Matroska
Версия формата : Version 4 / Version 2
Размер файла : 13,7 Гбайт
Продолжительность : 2 ч. 4 м.
Общий поток : 15,7 Мбит/сек
Название фильма : Rip by msltel
Дата кодирования : UTC 2017-04-06 02:45:32
Программа кодирования : mkvmerge v8.2.0 ('World of Adventure') 64bit
Библиотека кодирования : libebml v1.3.1 + libmatroska v1.4.2

Видео
Идентификатор : 1
Формат : AVC
Формат/Информация : Advanced Video Codec
Профиль формата : High@L4.1
Параметр CABAC формата : Да
Параметр ReFrames формата : 4 кадра
Идентификатор кодека : V_MPEG4/ISO/AVC
Продолжительность : 2 ч. 4 м.
Битрейт : 13,8 Мбит/сек
Ширина : 1920 пикселей
Высота : 1080 пикселей
Соотношение сторон : 16:9
Режим частоты кадров : Постоянный
Частота кадров : 23,976 (24000/1001) кадра/сек
Цветовое пространство : YUV
Субдискретизация насыщенности : 4:2:0
Битовая глубина : 8 бит
Тип развёртки : Прогрессивная
Бит/(Пиксели*Кадры) : 0.277
Размер потока : 12,0 Гбайт (88%)
Библиотека кодирования : x264 core 146 r2538 121396c
Настройки программы : cabac=1 / ref=4 / deblock=1:-3:-2 / analyse=0x3:0x113 / me=umh / subme=11 / psy=1 / psy_rd=1.00:0.15 / mixed_ref=1 / me_range=32 / chroma_me=1 / trellis=2 / 8x8dct=1 / cqm=0 / deadzone=21,11 / fast_pskip=0 / chroma_qp_offset=-3 / threads=6 / lookahead_threads=1 / sliced_threads=0 / nr=0 / decimate=1 / interlaced=0 / bluray_compat=0 / constrained_intra=0 / bframes=8 / b_pyramid=2 / b_adapt=2 / b_bias=0 / direct=1 / weightb=1 / open_gop=0 / weightp=2 / keyint=230 / keyint_min=23 / scenecut=40 / intra_refresh=0 / rc_lookahead=40 / rc=crf / mbtree=0 / crf=18.6 / qcomp=0.60 / qpmin=0 / qpmax=69 / qpstep=4 / vbv_maxrate=62500 / vbv_bufsize=78125 / crf_max=0.0 / nal_hrd=none / filler=0 / ip_ratio=1.40 / pb_ratio=1.30 / aq=1:1.00
Язык : English
Default : Да
Forced : Нет

Аудио #1
Идентификатор : 2
Формат : AC-3
Формат/Информация : Audio Coding 3
Параметр Endianness формата : Big
Идентификатор кодека : A_AC3
Продолжительность : 2 ч. 4 м.
Вид битрейта : Постоянный
Битрейт : 384 Кбит/сек
Каналы : 6 каналов
Расположение каналов : Front: L C R, Side: L R, LFE
Частота : 48,0 КГц
Частота кадров : 31,250 кадров/сек (1536 spf)
Битовая глубина : 16 бит
Метод сжатия : С потерями
Размер потока : 342 Мбайт (2%)
Заголовок : DUB
Язык : Russian
ServiceKind/String : Complete Main
Default : Да
Forced : Нет

Аудио #2
Идентификатор : 3
Формат : DTS
Формат/Информация : Digital Theater Systems
Режим : 16
Параметр Endianness формата : Big
Идентификатор кодека : A_DTS
Продолжительность : 2 ч. 4 м.
Вид битрейта : Постоянный
Битрейт : 1509 Кбит/сек
Каналы : 6 каналов
Расположение каналов : Front: L C R, Side: L R, LFE
Частота : 48,0 КГц
Частота кадров : 93,750 кадра/сек (512 spf)
Битовая глубина : 24 бит
Метод сжатия : С потерями
Размер потока : 1,31 Гбайт (10%)
Заголовок : original
Язык : English
Default : Нет
Forced : Нет

Текст #1
Идентификатор : 4
Формат : UTF-8
Идентификатор кодека : S_TEXT/UTF8
Идентификатор кодека/Информация : UTF-8 Plain Text
Продолжительность : 1 ч. 59 м.
Битрейт : 126 бит/сек
ElementCount : 1878
Размер потока : 111 Кбайт (0%)
Заголовок : русские
Язык : Russian
Default : Нет
Forced : Нет

Текст #2
Идентификатор : 5
Формат : UTF-8
Идентификатор кодека : S_TEXT/UTF8
Идентификатор кодека/Информация : UTF-8 Plain Text
Продолжительность : 1 ч. 51 м.
Битрейт : 1 бит/сек
ElementCount : 36
Размер потока : 1,22 Кбайт (0%)
Заголовок : русские (надписи)
Язык : Russian
Default : Да
Forced : Да

Текст #3
Идентификатор : 6
Формат : UTF-8
Идентификатор кодека : S_TEXT/UTF8
Идентификатор кодека/Информация : UTF-8 Plain Text
Продолжительность : 2 ч. 4 м.
Битрейт : 81 бит/сек
ElementCount : 1853
Размер потока : 74,3 Кбайт (0%)
Заголовок : английские (для слабослышащих)
Язык : English
Default : Нет
Forced : Нет

Меню
00:00:00.000 : :Chapter 01
00:05:04.761 : :Chapter 02
00:10:51.900 : :Chapter 03
00:16:21.980 : :Chapter 04
00:20:18.508 : :Chapter 05
00:23:51.179 : :Chapter 06
00:27:53.170 : :Chapter 07
00:34:38.993 : :Chapter 08
00:39:51.097 : :Chapter 09
00:43:37.656 : :Chapter 10
00:48:18.687 : :Chapter 11
00:53:10.103 : :Chapter 12
00:57:15.014 : :Chapter 13
01:03:29.722 : :Chapter 14
01:09:49.894 : :Chapter 15
01:12:32.723 : :Chapter 16
01:17:08.415 : :Chapter 17
01:21:24.087 : :Chapter 18
01:24:02.328 : :Chapter 19
01:27:28.952 : :Chapter 20
01:30:30.591 : :Chapter 21
01:35:06.992 : :Chapter 22
01:39:00.350 : :Chapter 23
01:41:23.660 : :Chapter 24
01:44:39.856 : :Chapter 25
01:49:47.247 : :Chapter 26
01:53:52.742 : :Chapter 27
01:58:07.079 : :Chapter 28
02:04:38.220 : :Chapter 29
pb.wtf



Скачать День Святого Валентина через торрент http://hostpic.gq/img/2017-04/05/vwl8d5nlpq13ne3i4nejafw2f.jpg Скачать фильм День Святого Валентина через торрент бесплантно в хорошем качестве Описание: Судьбы многих влюблённых и одиноких сердец в Лос-Анджелесе переплетаются в ожидании одного единственного дня — Дня Святого ... 10 10 3
Info! Золотая раздача, скачанное не засчитывается.
Торрент: Зарегистрирован [2017-04-06 06:08] · скачан: 30 раз
Статус: √ проверено
Размер: 13.65 GB
Как cкачать? Как скачать День Святого Валентина через торрент | qTorrent

28-11-2019 20:33  

Отключить всю рекламу на сайте

    Дорогой пользователь! Огромная просьба, поблагодарите релизера, оцените раздачу и оставьте свои комментарий, если Вы скачали День Святого Валентина через торрент бесплатно! Внесите свою лепту в развитие PiratBit!
    Комментировать посты могут только пользователи прошедшие не сложную регистрацию
    Показать сообщения:    

    День Святого Валентина через торрент
    Скачать бесплатно День Святого Валентина
    День Святого Валентина скачать торрент
    День Святого Валентина смотреть онлайн
    Cкачать фильм День Святого Валентина бесплатно
    День Святого Валентина скачать торрент в хорошем качестве
    День Святого Валентина смотреть онлайн бесплатно в хорошем качестве


    Вы не можете начинать темы
    Вы не можете отвечать на сообщения
    Вы не можете редактировать свои сообщения
    Вы не можете удалять свои сообщения
    Вы не можете голосовать в опросах
    Вы не можете прикреплять файлы к сообщениям
    Вы можете скачивать файлы