Ссылка на приватное зеркало нашего сайта всего за 1$. Внимание количество ограничено!!!

2 сезон

iTunes

1 сезон

1

iTunes

iTunes

iTunes

1 сезон

RePack

30

ИГРА 18+

pack

ВАЖНО

!!Акция!!

Alien_RageХит недели

RePack

MK11
pack

Забери бонус

RePack

jed

!!Акция!!

Alien_Rage

RePack

fifa19

RePack

Assassins Creed: Odyssey

RePack

NEED FOR SPEED™ PAYBACK

4 сезон

9 сезон

Бесстыжие 9 сезон

Все сериалы

все сериалы на PB.wtf

RePack

FAR CRY 5
  

Изгой-один: Звёздные войны. Истории / Rogue One (Гарет Эдвардс ) [2016, фантастика, боевик, приключения, BDRip 720p от potroks] [Локализованный видеоряд] Dub [Лицензия] pb.wtf

Изгой-один: Звёздные войны. Истории через торрент pb.wtf

Размер: 5.72 GB | Добавлен: 3 года 6 мес. назад | Торрент скачан:351 раз
Скачать  

06-04-2017 07:33 Изгой-один: Звёздные войны. Истории Скачать торрент  

Изгой-один: Звёздные войны. Истории / Rogue One

Год выпуска: 2016
Страна: США, Великобритания / Lucasfilm Ltd., Walt Disney Studios Motion Pictures...
Жанр: фантастика, боевик, приключения
Продолжительность: 02:13:57
Перевод: Дубляж [Blu-ray CEE]
Субтитры: русские (полные + форс.), английские (Forced + Full + SDH + SDH-Colored)
Навигация по главам: есть
Режиссер: Гарет Эдвардс
В ролях:

Фелисити Джонс (Jyn Erso), Диего Луна (Cassian Andor), Алан Тьюдик (K-2SO), Донни Йен (Chirrut Îmwe), Цзян Вэнь (Baze Malbus), Бен Мендельсон (Orson Krennic), Гай Генри (Governor Tarkin), Форест Уитакер (Saw Gerrera), Риз Ахмед (Bodhi Rook), Мадс Миккельсен (Galen Erso), Джимми Смитс (Bail Organa), Алистэр Петри (General Draven)
Описание: Сопротивление собирает отряд для выполнения особой миссии - надо выкрасть чертежи самого совершенного и смертоносного оружия Империи. Возглавляет бойцов неуправляемая и бесстрашная Джин Эрсо, у которой в этом самоубийственном задании есть и личные мотивы. Не всем суждено вернуться домой, но герои готовы к этому, ведь на кону судьба Галактики.

Качество: BDRip 720p
Формат: MKV
Видео: AVC, 1280x536 (2.40:1), 4877 kbps, 23,976 fps, 0,296 bpp
Аудио №1: AC3 / 5.1 / 48 kHz / 640 kbps / 16 bit | RUS
Аудио №2: AC3 / 5.1 / 48 kHz / 640 kbps / 16 bit | ENG
General
Unique ID : 240458776844015242315410989278869698111 (0xB4E6AD05E980509FA9A32C5D0FD1B63F)
Complete name : D:\Izgoy.Odin.Zvezdnyie.Voyny.Istorii.2016.DUAL.BDRip.720p.-HELLYWOOD.mkv
Format : Matroska
Format version : Version 4 / Version 2
File size : 5.72 GiB
Duration : 2 h 13 min
Overall bit rate : 6 109 kb/s
Movie name : Rogue One: A Star Wars Story (2016)
Encoded date : UTC 2017-04-06 07:01:43
Writing application : mkvmerge v5.9.0 ('On The Loose') built on Dec 15 2012 16:39:58
Writing library : libebml v1.3.0 + libmatroska v1.4.0

Video
ID : 1
Format : AVC
Format/Info : Advanced Video Codec
Format profile : High@L4.1
Format settings, CABAC : Yes
Format settings, ReFrames : 9 frames
Codec ID : V_MPEG4/ISO/AVC
Duration : 2 h 13 min
Bit rate : 4 877 kb/s
Width : 1 280 pixels
Height : 536 pixels
Display aspect ratio : 2.40:1
Frame rate mode : Constant
Frame rate : 23.976 (24000/1001) FPS
Color space : YUV
Chroma subsampling : 4:2:0
Bit depth : 8 bits
Scan type : Progressive
Bits/(Pixel*Frame) : 0.296
Stream size : 4.40 GiB (77%)
Title : potroks
Writing library : x264 core 148 r2762M 90a61ec
Encoding settings : cabac=1 / ref=9 / deblock=1:-2:-2 / analyse=0x3:0x132 / me=umh / subme=11 / psy=1 / psy_rd=1.00:0.05 / mixed_ref=1 / me_range=56 / chroma_me=1 / trellis=2 / 8x8dct=1 / cqm=0 / deadzone=21,11 / fast_pskip=0 / chroma_qp_offset=-3 / threads=9 / lookahead_threads=2 / sliced_threads=0 / nr=0 / decimate=0 / interlaced=0 / bluray_compat=0 / constrained_intra=0 / bframes=10 / b_pyramid=2 / b_adapt=2 / b_bias=0 / direct=3 / weightb=1 / open_gop=0 / weightp=2 / keyint=240 / keyint_min=23 / scenecut=40 / intra_refresh=0 / rc_lookahead=150 / rc=2pass / mbtree=0 / bitrate=4877 / ratetol=1.0 / qcomp=0.70 / qpmin=0 / qpmax=69 / qpstep=4 / cplxblur=20.0 / qblur=0.5 / vbv_maxrate=4877 / vbv_bufsize=62000 / nal_hrd=none / filler=0 / ip_ratio=1.40 / pb_ratio=1.30 / aq=1:0.80
Language : English
Default : Yes
Forced : No

Audio #1
ID : 2
Format : AC-3
Format/Info : Audio Coding 3
Mode extension : CM (complete main)
Format settings, Endianness : Big
Codec ID : A_AC3
Duration : 2 h 13 min
Bit rate mode : Constant
Bit rate : 640 kb/s
Channel(s) : 6 channels
Channel positions : Front: L C R, Side: L R, LFE
Sampling rate : 48.0 kHz
Frame rate : 31.250 FPS (1536 spf)
Compression mode : Lossy
Stream size : 613 MiB (10%)
Title : Dub | DD 5.1 @ 640 kbps - Blu-ray CEE
Language : Russian
Default : Yes
Forced : No

Audio #2
ID : 3
Format : AC-3
Format/Info : Audio Coding 3
Mode extension : CM (complete main)
Format settings, Endianness : Big
Codec ID : A_AC3
Duration : 2 h 13 min
Bit rate mode : Constant
Bit rate : 640 kb/s
Channel(s) : 6 channels
Channel positions : Front: L C R, Side: L R, LFE
Sampling rate : 48.0 kHz
Frame rate : 31.250 FPS (1536 spf)
Compression mode : Lossy
Stream size : 613 MiB (10%)
Title : Original | DD 5.1 @ 640 kbps
Language : English
Default : No
Forced : No

Text #1
ID : 4
Format : UTF-8
Codec ID : S_TEXT/UTF8
Codec ID/Info : UTF-8 Plain Text
Title : Forced
Language : Russian
Default : Yes
Forced : No

Text #2
ID : 5
Format : UTF-8
Codec ID : S_TEXT/UTF8
Codec ID/Info : UTF-8 Plain Text
Title : iTunes
Language : Russian
Default : No
Forced : No

Text #3
ID : 6
Format : UTF-8
Codec ID : S_TEXT/UTF8
Codec ID/Info : UTF-8 Plain Text
Title : Forced
Language : English
Default : No
Forced : No

Text #4
ID : 7
Format : UTF-8
Codec ID : S_TEXT/UTF8
Codec ID/Info : UTF-8 Plain Text
Title : Full
Language : English
Default : No
Forced : No

Text #5
ID : 8
Format : UTF-8
Codec ID : S_TEXT/UTF8
Codec ID/Info : UTF-8 Plain Text
Title : SDH
Language : English
Default : No
Forced : No

Text #6
ID : 9
Format : UTF-8
Codec ID : S_TEXT/UTF8
Codec ID/Info : UTF-8 Plain Text
Title : SDH-Colored
Language : English
Default : No
Forced : No

Menu
00:00:00.000 : :Глава 1
00:02:34.654 : :Глава 2
00:07:46.465 : :Глава 3
00:08:42.813 : :Глава 4
00:11:04.622 : :Глава 5
00:12:21.198 : :Глава 6
00:13:41.153 : :Глава 7
00:17:19.913 : :Глава 8
00:20:09.541 : :Глава 9
00:21:54.771 : :Глава 10
00:23:47.092 : :Глава 11
00:24:31.386 : :Глава 12
00:26:53.444 : :Глава 13
00:27:46.623 : :Глава 14
00:30:37.293 : :Глава 15
00:33:53.406 : :Глава 16
00:37:11.270 : :Глава 17
00:42:30.089 : :Глава 18
00:47:16.124 : :Глава 19
00:51:04.144 : :Глава 20
00:52:23.723 : :Глава 21
00:55:53.266 : :Глава 22
00:59:48.251 : :Глава 23
01:02:07.807 : :Глава 24
01:05:25.504 : :Глава 25
01:10:24.094 : :Глава 26
01:12:49.531 : :Глава 27
01:16:28.458 : :Глава 28
01:19:04.322 : :Глава 29
01:21:55.160 : :Глава 30
01:23:25.667 : :Глава 31
01:25:58.986 : :Глава 32
01:27:34.957 : :Глава 33
01:29:57.308 : :Глава 34
01:31:53.841 : :Глава 35
01:34:18.736 : :Глава 36
01:36:07.511 : :Глава 37
01:37:48.237 : :Глава 38
01:40:27.604 : :Глава 39
01:42:44.074 : :Глава 40
01:45:26.778 : :Глава 41
01:47:55.010 : :Глава 42
01:50:31.416 : :Глава 43
01:53:28.885 : :Глава 44
01:55:46.272 : :Глава 45
01:59:23.447 : :Глава 46
02:01:11.347 : :Глава 47
02:03:15.596 : :Глава 48
02:05:42.117 : :Глава 49
02:13:57.028 : :Глава 50
pb.wtf



Скачать Изгой-один: Звёздные войны. Истории через торрент http://i89.fastpic.ru/big/2017/0406/9a/59c5ddfb3dd3c51f00867a3431a82e9a.png Скачать фильм Изгой-один: Звёздные войны. Истории через торрент бесплантно в хорошем качестве Описание: Сопротивление собирает отряд для выполнения особой миссии - надо выкрасть чертежи самого совершенного и смертоносного оружия ... 9.1 10 9
Info! Золотая раздача, скачанное не засчитывается.
Торрент: Зарегистрирован [2017-04-06 07:33] · скачан: 351 раз
Статус: √ проверено
Размер: 5.72 GB
Как cкачать? Как скачать Изгой-один: Звёздные войны. Истории через торрент | qTorrent

% Раздел Тема Автор DL S | L
Ultra HD (UHD: 2K, 4K, 8K) — видео сверхвысокой чёткости [ 48.85 GB ] Изгой-один: Звёздные войны. Истории / Rogue One: A Star Wars Story [2016 UHD BDRemux 2160p] DUB [] bober100 Скачать
1 | 0
Фильмы [HD 720p, 1080p] (Хороший звук DUB, MVO) [ 11.52 GB ] Изгой-один: Звёздные войны. Истории / Rogue One: A Star Wars Story [2016 BDRip-HEVC 1080p от KORSAR][Локализованная версия][DUB + 3xAVO + VO] Cthulhu Скачать
2 | 0
Ultra HD (UHD: 2K, 4K, 8K) — видео сверхвысокой чёткости [ 42.63 GB ] Изгой-один: Звёздные войны. Истории / Rogue One [2016 UHD WEBRip 2160p] - [] sheker187 Скачать
1 | 0
Фильмы (Blu-ray, BD-Remux, HDDVD) [ 56.6 GB ] Изгой-один: Звёздные войны. Истории / Rogue One: A Star Wars Story [2016 BD Remux 1080p] [] 2xDUB+VO+3xAVO bober100 Скачать
1 | 0
Фильмы с авторской озвучкой [ 4.97 GB ] Изгой-один: Звёздные войны. Истории / Rogue One: A Star Wars Story [2016 BDRip 720p Авторский одноголосый Андрей Гаврилов] от ExKinoRay morfyi Скачать
1 | 0
Фильмы с авторской озвучкой [ 2.61 GB ] Изгой-один: Звёздные войны. Истории / Rogue One: A Star Wars Story [2016 BDRip-AVC Авторский одноголосый Андрей Гаврилов] от ExKinoRay morfyi Скачать
3 | 0
Фильмы [HD 720p, 1080p] (Хороший звук DUB, MVO) [ 6.59 GB ] Изгой-один: Звёздные войны. Истории / Rogue One: A Star Wars Story [2016 BDRip 720p BD CEE 2 x AVO] от ExKinoRay morfyi Скачать
1 | 0

28-11-2019 20:33  

Отключить всю рекламу на сайте

06-04-2017 07:45 Изгой-один: Звёздные войны. Истории Скачать торрент  

.......хоть бы один скрин с локалкой!!!pb.wtf



06-04-2017 07:53 Изгой-один: Звёздные войны. Истории Скачать торрент  

Userman4ik, третий по счету.pb.wtf



    Дорогой пользователь! Огромная просьба, поблагодарите релизера, оцените раздачу и оставьте свои комментарий, если Вы скачали Изгой-один: Звёздные войны. Истории через торрент бесплатно! Внесите свою лепту в развитие PiratBit!
    Комментировать посты могут только пользователи прошедшие не сложную регистрацию
    Показать сообщения:    

    Изгой-один: Звёздные войны. Истории через торрент
    Скачать бесплатно Изгой-один: Звёздные войны. Истории
    Изгой-один: Звёздные войны. Истории скачать торрент
    Изгой-один: Звёздные войны. Истории смотреть онлайн
    Cкачать фильм Изгой-один: Звёздные войны. Истории бесплатно
    Изгой-один: Звёздные войны. Истории скачать торрент в хорошем качестве
    Изгой-один: Звёздные войны. Истории смотреть онлайн бесплатно в хорошем качестве


    Вы не можете начинать темы
    Вы не можете отвечать на сообщения
    Вы не можете редактировать свои сообщения
    Вы не можете удалять свои сообщения
    Вы не можете голосовать в опросах
    Вы не можете прикреплять файлы к сообщениям
    Вы можете скачивать файлы