Death Stranding+DLC+АВТОАКТИВАЦИЯ

iTunes

iTunes

iTunes

1

iTunes

iTunes

iTunes

iTunes

iTunes

30
pack

$ от Little Big

ВАЖНО

!!Акция!!

Alien_RageХит недели

RePack

Resident Evil 21

ИГРА 18+

pack

RePack

jed

!!Акция!!

Alien_Rage

RePack

fifa19

RePack

Assassins Creed: Odyssey

RePack

NEED FOR SPEED™ PAYBACK

4 сезон

9 сезон

Бесстыжие 9 сезон

Все сериалы

все сериалы на PB.wtf

RePack

FAR CRY 5
  

SuperАлиби / Alibi.com (Филипп Лашо) [2017, комедия, WEB-DL 1080p] Дубляж (Rus, Ukr) [Лицензия / iTunes] pb.wtf

SuperАлиби через торрент pb.wtf

Размер: 3.53 GB | Добавлен: 3 года 3 мес. назад | Торрент скачан:1314 раз
Скачать  

06-04-2017 08:21 SuperАлиби Скачать торрент  

SuperАлиби / Alibi.com

Год выпуска: 2017
Страна: Франция
Жанр: комедия

Продолжительность: 01:25:41
Перевод: Дубляж - [Лицензия / iTunes]
Режиссер: Филипп Лашо
В ролях:

Филипп Лашо (Grégory Van Huffel), Элоди Фонтан (Flo Martin), Жюльен Аррути (Augustin), Тарек Будали (Mehdi), Дидье Бурдон (Gérard / Jean-Claude), Натали Бай (Mme Martin), Науэлл Мадани, Меди Садун (Garcia, le Gitan), Венсан Дезанья (Romain), Элис Дюфур (Clara), Филипп Дюкен (Maurice), Шанталь Ладезу (La vétérinaire)
Описание:
Нужно алиби, чтобы втайне от супруги спокойно отдохнуть с друзьями на футболе? Вам поможет агентство по созданию алиби. Нужна отмазка в школе? Обращайтесь! Решили отдохнуть от семьи в выходные? Мы на связи! Этот стартап Грега и его команды уже получил оглушительный успех...
Рейтинг:

Качество: WEB-DL 1080p
Формат: MKV
Видео: AVC, 1920x1038 (1.85:1), 5017 kbps, 25 fps, 0,101 bpp
Аудио №1: русский / AC3 / 5.1 / 48 kHz / 384 kbps / |Дубляж, iTunes|
Аудио №2: украинский / AC3 / 5.1 / 48 kHz / 384 kbps / |Дубляж, iTunes|
Навигация по главам: есть

General
Unique ID : 221645137752769938812993434395795212566 (0xA6BF4D0016787017A037E842D5774916)
Complete name : E:\SuPerALebi.2O17.D.WEB-DL.1O8Op.mkv
Format : Matroska
Format version : Version 2
File size : 3.53 GiB
Duration : 1 h 25 min
Overall bit rate : 5 903 kb/s
Encoded date : UTC 2017-04-05 18:20:13
Writing application : mkvmerge v8.3.0 ('Over the Horizon') 64bit
Writing library : libebml v1.3.1 + libmatroska v1.4.2

Video
ID : 1
Format : AVC
Format/Info : Advanced Video Codec
Format profile : High@L4
Format settings, CABAC : Yes
Format settings, ReFrames : 4 frames
Codec ID : V_MPEG4/ISO/AVC
Duration : 1 h 25 min
Bit rate : 5 018 kb/s
Width : 1 920 pixels
Height : 1 038 pixels
Display aspect ratio : 1.85:1
Frame rate mode : Constant
Frame rate : 25.000 FPS
Color space : YUV
Chroma subsampling : 4:2:0
Bit depth : 8 bits
Scan type : Progressive
Bits/(Pixel*Frame) : 0.101
Stream size : 3.00 GiB (85%)
Language : English
Default : Yes
Forced : No
Color range : Limited
Color primaries : BT.709
Transfer characteristics : BT.709
Matrix coefficients : BT.709

Audio #1
ID : 2
Format : AC-3
Format/Info : Audio Coding 3
Mode extension : CM (complete main)
Format settings, Endianness : Big
Codec ID : A_AC3
Duration : 1 h 25 min
Bit rate mode : Constant
Bit rate : 384 kb/s
Channel(s) : 6 channels
Channel positions : Front: L C R, Side: L R, LFE
Sampling rate : 48.0 kHz
Frame rate : 31.250 FPS (1536 spf)
Compression mode : Lossy
Stream size : 235 MiB (7%)
Language : Russian
Default : Yes
Forced : No

Audio #2
ID : 3
Format : AC-3
Format/Info : Audio Coding 3
Mode extension : CM (complete main)
Format settings, Endianness : Big
Codec ID : A_AC3
Duration : 1 h 25 min
Bit rate mode : Constant
Bit rate : 384 kb/s
Channel(s) : 6 channels
Channel positions : Front: L C R, Side: L R, LFE
Sampling rate : 48.0 kHz
Frame rate : 31.250 FPS (1536 spf)
Compression mode : Lossy
Stream size : 235 MiB (7%)
Language : Ukrainian
Default : No
Forced : No

Menu
00:00:00.000 : en:Глава 1
00:06:10.680 : en:Глава 2
00:11:29.320 : en:Глава 3
00:16:51.800 : en:Глава 4
00:23:38.760 : en:Глава 5
00:29:31.200 : en:Глава 6
00:35:36.280 : en:Глава 7
00:41:25.640 : en:Глава 8
00:47:41.000 : en:Глава 9
00:52:48.480 : en:Глава 10
00:59:43.080 : en:Глава 11
01:05:06.480 : en:Глава 12
01:10:18.640 : en:Глава 13
01:15:43.120 : en:Глава 14
pb.wtf



Скачать SuperАлиби через торрент http://i5.imageban.ru/out/2017/04/06/b4a8d3564cf8839b913a4dd36bd2a23b.png Скачать фильм SuperАлиби через торрент бесплантно в хорошем качестве Описание: Нужно алиби, чтобы втайне от супруги спокойно отдохнуть с друзьями на футболе? Вам поможет агентство по созданию алиби. Нужна ... 10 10 26
Торрент: Зарегистрирован [2017-04-06 08:21] · скачан: 1 314 раз
Статус: √ проверено
Размер: 3.53 GB
Как cкачать? Как скачать SuperАлиби через торрент | qTorrent

% Раздел Тема Автор DL S | L
Ultra HD (UHD: 2K, 4K, 8K) — видео сверхвысокой чёткости [ 43.21 GB ] SuperАлиби / Alibi.com [2017 UHD BDRemux 2160p] bober100 Скачать
1 | 0
Фильмы [HD 720p, 1080p] (Хороший звук DUB, MVO) [ 4.46 GB ] SuperАлиби / Alibi.com [2017 BDRip 720p] bober100 Скачать
1 | 0
Фильмы 2017 [DVDrip, WEB-DLRip, HDrip] (DUB, MVO) [ 1.42 GB ] SuperАлиби / Alibi.com [2017 BDRip] - Twi7ter Скачать
3 | 0
Фильмы 2017 [DVDrip, WEB-DLRip, HDrip] (DUB, MVO) [ 700 MB ] SuperАлиби / Alibi.com [2017 HDRip] bober100 Скачать
1 | 0
Фильмы (Blu-ray, BD-Remux, HDDVD) [ 25.65 GB ] SuperАлиби / Alibi.com [2017 BD Remux 1080p] bober100 Скачать
1 | 0
Фильмы [HD 720p, 1080p] (Хороший звук DUB, MVO) [ 12.67 GB ] SuperАлиби / Alibi.com [2017 BDRip 1080p] bober100 Скачать
1 | 0
Фильмы 2017 [DVDrip, WEB-DLRip, HDrip] (DUB, MVO) [ 2.11 GB ] SuperАлиби / Alibi.com [2017 BDRip-AVC] bober100 Скачать
1 | 0

28-11-2019 20:33  

Отключить всю рекламу на сайте

08-04-2017 10:30 SuperАлиби Скачать торрент  

Не Супернянь, но посмотреть можноpb.wtf



    Дорогой пользователь! Огромная просьба, поблагодарите релизера, оцените раздачу и оставьте свои комментарий, если Вы скачали SuperАлиби через торрент бесплатно! Внесите свою лепту в развитие PiratBit!
    Комментировать посты могут только пользователи прошедшие не сложную регистрацию
    Показать сообщения:    

    SuperАлиби через торрент
    Скачать бесплатно SuperАлиби
    SuperАлиби скачать торрент
    SuperАлиби смотреть онлайн
    Cкачать фильм SuperАлиби бесплатно
    SuperАлиби скачать торрент в хорошем качестве
    SuperАлиби смотреть онлайн бесплатно в хорошем качестве


    Вы не можете начинать темы
    Вы не можете отвечать на сообщения
    Вы не можете редактировать свои сообщения
    Вы не можете удалять свои сообщения
    Вы не можете голосовать в опросах
    Вы не можете прикреплять файлы к сообщениям
    Вы можете скачивать файлы