2 сезон

iTunes

MVO

1

2 сезон

iTunes

iTunes

1 сезон

RePack

30

Ultimate

ВАЖНО

ИГРА 18+

pack

RePack

MK11
pack

Легкие деньги

RePack

jed

RePack

fifa19

RePack

RDR2

RePack

NEED FOR SPEED™ PAYBACK

4 сезон

9 сезон

Бесстыжие 9 сезон

Все сериалы

все сериалы на PB.wtf

RePack

FAR CRY 5

Anonymous, доброй ночи, мы не успеваем собрать деньги на оплату серверов за декабрь и январь, помогите нам пожалуйста в это трудное время. В качестве благодарности мы отключим Вам всю рекламу на сайте (укажите свой ник в строку Ваше имя)!

×
  
Magnet ссылка

На пятьдесят оттенков темнее / Fifty Shades Darker (Джеймс Фоули) [2017 г., драма, мелодрама, WEB-DLRip, Дубляж "iTunes"] [Театральная версия] pb.wtf

На пятьдесят оттенков темнее через торрент pb.wtf

Размер: 2.18 GB | Добавлен: 3 года 9 мес. назад | Торрент скачан:884 раза
Скачать  

06-04-2017 18:32 На пятьдесят оттенков темнее Скачать торрент  

На пятьдесят оттенков темнее / Fifty Shades Darker
Год выпуска: 2017
Страна: США / Perfect World Pictures (Beijing), Universal Pictures
Жанр: драма, мелодрама
Продолжительность: 01:57:48
Перевод: Дубляж (iTunes)

Режиссер: Джеймс Фоули

rating

В ролях: Дакота Джонсон, Джейми Дорнан, Эрик Джонсон, Элоиза Мамфорд, Белла Хиткот, Рита Ора, Люк Граймс, Виктор Расук, Макс Мартини, Брюс Олтмен

Описание: Пока Кристиан Грей борется со своими внутренними демонами, Анастейша Стил вынуждена противостоять гневу и зависти тех женщин, что были с Кристианом до нее.

Качество: WEB-DLRip
Формат: AVI
Видео кодек: XviD
Аудио кодек: AC3
Видео: 720x304 (2.37:1), 23.976 fps, XviD build 50 ~2253 kbps avg, 0.43 bit/pixel
Аудио: 48 kHz, AC3 Dolby Digital, 3/2 (L,C,R,l,r) + LFE ch, ~384 kbps

Общее
Полное имя : F:\ФИЛЬМЫ\На пятьдесят оттенков темнее.2017.D.WEB-DLRip.avi
Формат : AVI
Формат/Информация : Audio Video Interleave
Профиль формата : OpenDML
Размер файла : 2,18 Гбайт
Продолжительность : 1 ч. 57 м.
Общий поток : 2649 Кбит/сек
Программа кодирования : VirtualDubMod 1.5.10.3 | www.virtualdub-fr.org || (build 2550/release)
Библиотека кодирования : VirtualDubMod build 2550/release

Видео
Идентификатор : 0
Формат : MPEG-4 Visual
Профиль формата : Advanced Simple@L5
Параметр BVOP формата : 1
Параметр QPel формата : Нет
Параметр GMC формата : Без точки перехода
Параметр матрицы формата : Default (MPEG)
Идентификатор кодека : XVID
Идентификатор кодека/Подсказка : XviD
Продолжительность : 1 ч. 57 м.
Битрейт : 2253 Кбит/сек
Ширина : 720 пикселей
Высота : 304 пикселя
Соотношение сторон : 2,35:1
Частота кадров : 23,976 (24000/1001) кадра/сек
Цветовое пространство : YUV
Субдискретизация насыщенности : 4:2:0
Битовая глубина : 8 бит
Тип развёртки : Прогрессивная
Метод сжатия : С потерями
Бит/(Пиксели*Кадры) : 0.429
Размер потока : 1,85 Гбайт (85%)
Библиотека кодирования : XviD 1.2.1 (UTC 2008-12-04)

Аудио
Идентификатор : 1
Формат : AC-3
Формат/Информация : Audio Coding 3
Параметр Endianness формата : Big
Идентификатор кодека : 2000
Продолжительность : 1 ч. 57 м.
Вид битрейта : Постоянный
Битрейт : 384 Кбит/сек
Каналы : 6 каналов
Расположение каналов : Front: L C R, Side: L R, LFE
Частота : 48,0 КГц
Частота кадров : 31,250 кадров/сек (1536 spf)
Битовая глубина : 16 бит
Метод сжатия : С потерями
Размер потока : 324 Мбайт (14%)
Выравнивание : Разделение по промежуткам
Продолжительность промежутка : 42 мс. (1,00 видеокадр)
Время предзагрузки промежутка : 500 мс.
ServiceKind/String : Complete Main

pb.wtf



Скачать На пятьдесят оттенков темнее через торрент http://pic1.kartinco.top/images/11/bml38.jpg Скачать фильм На пятьдесят оттенков темнее через торрент бесплантно в хорошем качестве Описание: Пока Кристиан Грей борется со своими внутренними демонами, Анастейша Стил вынуждена противостоять гневу и зависти тех женщин, что ... 8.9 10 23
Info! Золотая раздача, скачанное не засчитывается.
Торрент: Зарегистрирован [2017-04-06 18:32] · скачан: 884 раз
Статус: √ проверено
Размер: 2.18 GB
Как cкачать? Как скачать На пятьдесят оттенков темнее через торрент | UTorrent

% Раздел Тема Автор DL S | L
Ultra HD (UHD: 2K, 4K, 8K) — видео сверхвысокой чёткости [ 41.23 GB ] На пятьдесят оттенков темнее / Fifty Shades Darker [2017 UHD BDRemux 2160p] [] [Unrated Cut] sheker187 Скачать
1 | 0
Ultra HD (UHD: 2K, 4K, 8K) — видео сверхвысокой чёткости [ 40.92 GB ] На пятьдесят оттенков темнее / Fifty Shades Darker [2017 UHD BDRemux 2160p] DUB [Расширенная версия] [] bober100 Скачать
1 | 0
Фильмы (Blu-ray, BD-Remux, HDDVD) [ 43.22 GB ] На пятьдесят оттенков темнее / Fifty Shades Darker [2017 Blu-ray CEE 1080p] DUB [Театральная/расширенная версия] [] bober100 Скачать
1 | 0
Фильмы (Blu-ray, BD-Remux, HDDVD) [ 24.87 GB ] На пятьдесят оттенков темнее / Fifty Shades Darker [2017 BD Remux 1080p] DUB [Театральная версия] [] bober100 Скачать
1 | 0
Фильмы без перевода [ 29.8 GB ] На пятьдесят оттенков темнее / Fifty Shades Darker [2017 BD Remux] [Оригинал-ENG] smaster Скачать
1 | 0
Фильмы [HD 720p, 1080p] (Хороший звук DUB, MVO) [ 11.9 GB ] На пятьдесят оттенков темнее / Fifty Shades Darker [2017 BDRip 1080p] [Расширенная версия] - [] -Lexx- Скачать
1 | 0
Фильмы (Blu-ray, BD-Remux, HDDVD) [ 30.19 GB ] На пятьдесят оттенков темнее / Fifty Shades Darker [2017 BDRemux 1080p от ExKinoRay] Расширенная версия / Russian Mafia Скачать
1 | 0

28-11-2019 20:33  

Отключить всю рекламу на сайте

06-04-2017 21:40 На пятьдесят оттенков темнее Скачать торрент  

на 50 мм глубжеpb.wtf



08-04-2017 19:03 На пятьдесят оттенков темнее Скачать торрент  

на 100 процентов ТУПЕЕ сериальнееpb.wtf



    Дорогой пользователь! Огромная просьба, поблагодарите релизера, оцените раздачу и оставьте свои комментарий, если Вы скачали На пятьдесят оттенков темнее через торрент бесплатно! Внесите свою лепту в развитие PiratBit!
    Комментировать посты могут только пользователи прошедшие не сложную регистрацию
    Показать сообщения:    

    На пятьдесят оттенков темнее через торрент
    Скачать бесплатно На пятьдесят оттенков темнее
    На пятьдесят оттенков темнее скачать торрент
    На пятьдесят оттенков темнее смотреть онлайн
    Cкачать фильм На пятьдесят оттенков темнее бесплатно
    На пятьдесят оттенков темнее скачать торрент в хорошем качестве
    На пятьдесят оттенков темнее смотреть онлайн бесплатно в хорошем качестве


    Вы не можете начинать темы
    Вы не можете отвечать на сообщения
    Вы не можете редактировать свои сообщения
    Вы не можете удалять свои сообщения
    Вы не можете голосовать в опросах
    Вы не можете прикреплять файлы к сообщениям
    Вы можете скачивать файлы