Ссылка на приватное зеркало нашего сайта всего за 1$. Внимание количество ограничено!!!

2 сезон

iTunes

1 сезон

1

2 сезон

2 сезон

iTunes

1 сезон

RePack

30

Ultimate

ВАЖНО

ИГРА 18+

pack

RePack

MK11
pack

Забери бонус

RePack

jed

!!Акция!!

Alien_Rage

RePack

fifa19

RePack

Assassins Creed: Odyssey

RePack

NEED FOR SPEED™ PAYBACK

4 сезон

9 сезон

Бесстыжие 9 сезон

Все сериалы

все сериалы на PB.wtf

RePack

FAR CRY 5
  

Брокмайр / Brockmire / Сезон: 1 / Серии: 1-8 из 8 (Тим Киркби ) [2017 , комедия, WEB-DLRip 1080p] MVO [BaibaKo] pb.wtf

Брокмайр через торрент pb.wtf

Размер: 7.69 GB | Добавлен: 3 года 6 мес. назад | Торрент скачан:18 раз
Скачать  

06-04-2017 20:09 Брокмайр Скачать торрент  

Брокмайр / Brockmire

Год выпуска: 2017

Страна: США
Выпущено: США, Funny or Die
Жанр: комедия
Продолжительность: 00:23:00 (серия)
Перевод: Профессиональный многоголосый [BaibaKo]
Режиссер: Тим Киркби
В ролях: Хэнк Азария (Jim Brockmire), Хемки Мадера (Pedro Uribe), Аманда Пит, Пол Рэй (Dale), Тайрел Джексон Уильямс (Charles), Адан Мартин Роча (Danny Cruz), Стив Култер (Coach Pom Pom), Итен Дэниелс (Bat Boy Calhoun), Райан Ли (John Elton), Алекс Фиппс (Ryan Stanton), Даисукэ Цудзи (Yoshi Takatsu), Кэти Финнеран (Lucy Brockmire)
Описание:
Джим Брокмайр — знаменитый комментатор игр Главной лиги бейсбола. Однако узнав об изменах жены, он послал к чертям профессионализм и слетел с катушек в прямом эфире. Ролик с буйствующим Брокмайром попал в сеть, превратив бывшую звезду во всеобщее посмешище. Но десять лет спустя главный герой решает восстановить свою карьеру и наладить личную жизнь, устроившись комментатором игр низшей бейсбольной лиги в крохотном Морристауне.
Рейтинг:
rating
Качество: WEB-DLRip 1080p
Формат: MKV
Видео: MPEG-4 AVC , 1916x1076, 23.976 fps, 5200 Кбит/с
Аудио №1: русский / AC3, 6 ch, 384 Кбит/с 48 kHz
Аудио №2: английский / AC3, 6 ch, 384 Кбит/с 48 kHz
General
Unique ID : 194616385700759750889136482492722059735 (0x9269C0A31DAABF339EC6143A1AC619D7)
Complete name : Brockmire.s01.HD1080p.WEB-DL.Rus.Eng.BaibaKo.tv\Brockmire.s01e01.HD1080p.WEB-DL.Rus.Eng.BaibaKo.tv.mkv
Format : Matroska
Format version : Version 4 / Version 2
File size : 1.01 GiB
Duration : 23 min
Overall bit rate : 6 090 kb/s
Encoded date : UTC 2017-04-06 14:49:18
Writing application : mkvmerge v8.5.2 ('Crosses') 64bit
Writing library : libebml v1.3.3 + libmatroska v1.4.4

Video
ID : 1
Format : AVC
Format/Info : Advanced Video Codec
Format profile : High@L4
Format settings, CABAC : Yes
Format settings, ReFrames : 4 frames
Codec ID : V_MPEG4/ISO/AVC
Duration : 23 min
Bit rate : 5 320 kb/s
Width : 1 916 pixels
Height : 1 076 pixels
Display aspect ratio : 16:9
Frame rate mode : Constant
Frame rate : 23.976 (23976/1000) FPS
Original frame rate : 23.976 (24000/1001) FPS
Color space : YUV
Chroma subsampling : 4:2:0
Bit depth : 8 bits
Scan type : Progressive
Bits/(Pixel*Frame) : 0.108
Stream size : 905 MiB (87%)
Writing library : x264 core 148 r2744 b97ae06
Encoding settings : cabac=1 / ref=3 / deblock=1:0:0 / analyse=0x3:0x113 / me=hex / subme=7 / psy=1 / psy_rd=1.00:0.00 / mixed_ref=1 / me_range=16 / chroma_me=1 / trellis=1 / 8x8dct=1 / cqm=0 / deadzone=21,11 / fast_pskip=1 / chroma_qp_offset=-2 / threads=12 / lookahead_threads=2 / sliced_threads=0 / nr=0 / decimate=1 / interlaced=0 / bluray_compat=0 / constrained_intra=0 / bframes=3 / b_pyramid=2 / b_adapt=1 / b_bias=0 / direct=1 / weightb=1 / open_gop=0 / weightp=2 / keyint=240 / keyint_min=23 / scenecut=40 / intra_refresh=0 / rc_lookahead=40 / rc=crf / mbtree=1 / crf=18.0 / qcomp=0.60 / qpmin=0 / qpmax=69 / qpstep=4 / ip_ratio=1.40 / aq=1:1.00
Default : No
Forced : No

Audio #1
ID : 2
Format : AC-3
Format/Info : Audio Coding 3
Mode extension : CM (complete main)
Format settings, Endianness : Big
Codec ID : A_AC3
Duration : 23 min
Bit rate mode : Constant
Bit rate : 384 kb/s
Channel(s) : 6 channels
Channel positions : Front: L C R, Side: L R, LFE
Sampling rate : 48.0 kHz
Frame rate : 31.250 FPS (1536 spf)
Compression mode : Lossy
Stream size : 65.3 MiB (6%)
Language : Russian
Default : Yes
Forced : No

Audio #2
ID : 3
Format : AC-3
Format/Info : Audio Coding 3
Mode extension : CM (complete main)
Format settings, Endianness : Big
Codec ID : A_AC3
Duration : 23 min
Bit rate mode : Constant
Bit rate : 384 kb/s
Channel(s) : 6 channels
Channel positions : Front: L C R, Side: L R, LFE
Sampling rate : 48.0 kHz
Frame rate : 31.250 FPS (1536 spf)
Compression mode : Lossy
Stream size : 65.3 MiB (6%)
Language : English
Default : No
Forced : No


Baibako

Реклама на обычном месте

pb.wtf



Скачать Брокмайр через торрент http://s019.radikal.ru/i622/1705/11/3c2e1ecc3f56.jpg Скачать фильм Брокмайр через торрент бесплантно в хорошем качестве Описание: Джим Брокмайр — знаменитый комментатор игр Главной лиги бейсбола. Однако узнав об изменах жены, он послал к чертям ... 10 10 3
Торрент: Зарегистрирован [2017-05-19 11:58] · скачан: 18 раз
Статус: √ проверено
Размер: 7.69 GB
Как cкачать? Как скачать Брокмайр через торрент | qTorrent

% Раздел Тема Автор DL S | L
Зарубежные сериалы [ 5.41 GB ] Брокмайр / Brockmire / Сезон: 2 / Серии: 1-8 из 8 [2018 WEBRip 720p] MVO [BaibaKo] bober100 Скачать
1 | 0


Последний раз редактировалось: batonchik (2017-04-06 20:14), всего редактировалось 1 раз

28-11-2019 20:33  

Отключить всю рекламу на сайте

    Дорогой пользователь! Огромная просьба, поблагодарите релизера, оцените раздачу и оставьте свои комментарий, если Вы скачали Брокмайр через торрент бесплатно! Внесите свою лепту в развитие PiratBit!
    Комментировать посты могут только пользователи прошедшие не сложную регистрацию
    Показать сообщения:    

    Брокмайр через торрент
    Скачать бесплатно Брокмайр
    Брокмайр скачать торрент
    Брокмайр смотреть онлайн
    Cкачать фильм Брокмайр бесплатно
    Брокмайр скачать торрент в хорошем качестве
    Брокмайр смотреть онлайн бесплатно в хорошем качестве


    Вы не можете начинать темы
    Вы не можете отвечать на сообщения
    Вы не можете редактировать свои сообщения
    Вы не можете удалять свои сообщения
    Вы не можете голосовать в опросах
    Вы не можете прикреплять файлы к сообщениям
    Вы можете скачивать файлы