Ссылка на приватное зеркало нашего сайта всего за 1$. Внимание количество ограничено!!!

2 сезон

iTunes

1 сезон

1

iTunes

iTunes

iTunes

1 сезон

RePack

30

ИГРА 18+

pack

ВАЖНО

!!Акция!!

Alien_RageХит недели

RePack

MK11
pack

Забери бонус

RePack

jed

!!Акция!!

Alien_Rage

RePack

fifa19

RePack

Assassins Creed: Odyssey

RePack

NEED FOR SPEED™ PAYBACK

4 сезон

9 сезон

Бесстыжие 9 сезон

Все сериалы

все сериалы на PB.wtf

RePack

FAR CRY 5
  

Тринадцать / Thirteen (Кэтрин Хардвик) [2003, драма, BDRip 720p by msltel] MVO, VO pb.wtf

Тринадцать через торрент pb.wtf

Размер: 5.49 GB | Добавлен: 3 года 6 мес. назад | Торрент скачан:46 раз
Скачать  

07-04-2017 05:46 Тринадцать Скачать торрент  

Название: Тринадцать
Оригинальное название: Thirteen
Год выпуска: 2003
Страна: США
Жанр: драма
Продолжительность: 01:40:07
Перевод: профессиональный многоголосый, любительский одноголосый

Режиссёр: Кэтрин Хардвик

В ролях: Холли Хантер, Ивэн Рэйчел Вуд, Никки Рид, Джереми Систо, Брэйди Корбет, Дебора Кара Ангер, Кип Парду, Сара Кларк, Д.В. Моффетт, Ванесса Энн Хадженс

Описание: Трудностей переходного возраста не удалось избежать даже никогда не прогуливавшей уроков отличнице Трэйси. После знакомства с самой популярной девочкой в школе Иви её как подменили. Теперь Трэйси старается во всём походить на свою новую подружку — быть такой же раскованной, общительной и безбашенной. Мачехе Мелани придётся нелегко, ведь образец для подражания у её дочери ещё тот: Иви — сирота, живёт с тётей и большую часть времени проводит на улице, выпивая, куря и встречаясь с парнями... Сюжет фильма частично основан на событиях из жизни актрисы и соавтора сценария Никки Рид, которая в возрасте 12-13 лет пережила непростой жизненный период.



Качество: BDRip 720p
Формат: MKV
Видео: MPEG-4 AVC, 6506 Kбит/с, 1280x694, 23,976 кадра/с
Аудио 1: русский, AC3, 448 kbps, 6 ch, 48 kHz [профессиональный многоголосый]
Аудио 2: русский, AC3, 448 kbps, 6 ch, 48 kHz [любительский одноголосый, RussianGuy27, с ненормативонй лексикой]
Аудио 3: английский, AC3, 448 kbps, 6 ch, 48 kHz [оригинал]
Субтитры 1: русские
Субтитры 2: английские
Имеются неименованные главы/чаптеры.
Общее
Уникальный идентификатор : 235726355795757043883096191421922232129 (0xB1573EA6AE0B41CBAE377131BDE94741)
Полное имя : D:\Video\Тринадцать.2003.BDRip.720p by msltel.mkv
Формат : Matroska
Версия формата : Version 4 / Version 2
Размер файла : 5,49 Гбайт
Продолжительность : 1 ч. 40 м.
Общий поток : 7850 Кбит/сек
Название фильма : Rip by msltel
Дата кодирования : UTC 2017-04-07 02:42:02
Программа кодирования : mkvmerge v8.2.0 ('World of Adventure') 64bit
Библиотека кодирования : libebml v1.3.1 + libmatroska v1.4.2

Видео
Идентификатор : 1
Формат : AVC
Формат/Информация : Advanced Video Codec
Профиль формата : High@L4.1
Параметр CABAC формата : Да
Параметр ReFrames формата : 9 кадров
Идентификатор кодека : V_MPEG4/ISO/AVC
Продолжительность : 1 ч. 40 м.
Битрейт : 6506 Кбит/сек
Ширина : 1280 пикселей
Высота : 694 пикселя
Соотношение сторон : 1,85:1
Режим частоты кадров : Постоянный
Частота кадров : 23,976 (24000/1001) кадра/сек
Цветовое пространство : YUV
Субдискретизация насыщенности : 4:2:0
Битовая глубина : 8 бит
Тип развёртки : Прогрессивная
Бит/(Пиксели*Кадры) : 0.305
Размер потока : 4,55 Гбайт (83%)
Библиотека кодирования : x264 core 146 r2538 121396c
Настройки программы : cabac=1 / ref=9 / deblock=1:-3:-2 / analyse=0x3:0x113 / me=umh / subme=11 / psy=1 / psy_rd=1.00:0.15 / mixed_ref=1 / me_range=32 / chroma_me=1 / trellis=2 / 8x8dct=1 / cqm=0 / deadzone=21,11 / fast_pskip=0 / chroma_qp_offset=-3 / threads=6 / lookahead_threads=1 / sliced_threads=0 / nr=0 / decimate=1 / interlaced=0 / bluray_compat=0 / constrained_intra=0 / bframes=8 / b_pyramid=2 / b_adapt=2 / b_bias=0 / direct=1 / weightb=1 / open_gop=0 / weightp=2 / keyint=230 / keyint_min=23 / scenecut=40 / intra_refresh=0 / rc_lookahead=40 / rc=crf / mbtree=0 / crf=20.5 / qcomp=0.60 / qpmin=0 / qpmax=69 / qpstep=4 / vbv_maxrate=62500 / vbv_bufsize=78125 / crf_max=0.0 / nal_hrd=none / filler=0 / ip_ratio=1.40 / pb_ratio=1.30 / aq=1:1.00
Язык : English
Default : Да
Forced : Нет

Аудио #1
Идентификатор : 2
Формат : AC-3
Формат/Информация : Audio Coding 3
Параметр Endianness формата : Big
Идентификатор кодека : A_AC3
Продолжительность : 1 ч. 39 м.
Вид битрейта : Постоянный
Битрейт : 448 Кбит/сек
Каналы : 6 каналов
Расположение каналов : Front: L C R, Side: L R, LFE
Частота : 48,0 КГц
Частота кадров : 31,250 кадров/сек (1536 spf)
Битовая глубина : 16 бит
Метод сжатия : С потерями
Размер потока : 320 Мбайт (6%)
Заголовок : MVO
Язык : Russian
ServiceKind/String : Complete Main
Default : Да
Forced : Нет

Аудио #2
Идентификатор : 3
Формат : AC-3
Формат/Информация : Audio Coding 3
Параметр Endianness формата : Big
Идентификатор кодека : A_AC3
Продолжительность : 1 ч. 39 м.
Вид битрейта : Постоянный
Битрейт : 448 Кбит/сек
Каналы : 6 каналов
Расположение каналов : Front: L C R, Side: L R, LFE
Частота : 48,0 КГц
Частота кадров : 31,250 кадров/сек (1536 spf)
Битовая глубина : 16 бит
Метод сжатия : С потерями
Размер потока : 320 Мбайт (6%)
Заголовок : любительский одноголосый, RussianGuy27, с ненормативонй лексикой
Язык : Russian
ServiceKind/String : Complete Main
Default : Нет
Forced : Нет

Аудио #3
Идентификатор : 4
Формат : AC-3
Формат/Информация : Audio Coding 3
Параметр Endianness формата : Big
Идентификатор кодека : A_AC3
Продолжительность : 1 ч. 39 м.
Вид битрейта : Постоянный
Битрейт : 448 Кбит/сек
Каналы : 6 каналов
Расположение каналов : Front: L C R, Side: L R, LFE
Частота : 48,0 КГц
Частота кадров : 31,250 кадров/сек (1536 spf)
Битовая глубина : 16 бит
Метод сжатия : С потерями
Размер потока : 320 Мбайт (6%)
Заголовок : original
Язык : English
ServiceKind/String : Complete Main
Default : Нет
Forced : Нет

Текст #1
Идентификатор : 5
Формат : UTF-8
Идентификатор кодека : S_TEXT/UTF8
Идентификатор кодека/Информация : UTF-8 Plain Text
Продолжительность : 1 ч. 35 м.
Битрейт : 77 бит/сек
ElementCount : 1068
Размер потока : 54,1 Кбайт (0%)
Заголовок : русские
Язык : Russian
Default : Нет
Forced : Нет

Текст #2
Идентификатор : 6
Формат : UTF-8
Идентификатор кодека : S_TEXT/UTF8
Идентификатор кодека/Информация : UTF-8 Plain Text
Продолжительность : 1 ч. 38 м.
Битрейт : 49 бит/сек
ElementCount : 1015
Размер потока : 35,5 Кбайт (0%)
Заголовок : английские
Язык : English
Default : Нет
Forced : Нет

Меню
00:00:00.000 : en:00:00:00.000
00:07:34.417 : en:00:07:34.417
00:15:27.917 : en:00:15:27.917
00:23:07.375 : en:00:23:07.375
00:31:38.875 : en:00:31:38.875
00:42:05.500 : en:00:42:05.500
00:55:23.291 : en:00:55:23.291
01:06:21.959 : en:01:06:21.959
01:16:55.583 : en:01:16:55.583
01:25:38.125 : en:01:25:38.125
01:34:48.667 : en:01:34:48.667
01:39:55.959 : en:01:39:55.959
pb.wtf



Скачать Тринадцать через торрент http://hostpic.gq/img/2017-04/07/mfohixlth2estcs1nstdbnjmi.jpg Скачать фильм Тринадцать через торрент бесплантно в хорошем качестве Описание: Трудностей переходного возраста не удалось избежать даже никогда не прогуливавшей уроков отличнице Трэйси. После знакомства с ... 7 10 3
Info! Золотая раздача, скачанное не засчитывается.
Торрент: Зарегистрирован [2017-04-07 05:46] · скачан: 46 раз
Статус: √ проверено
Размер: 5.49 GB
Как cкачать? Как скачать Тринадцать через торрент | qTorrent

% Раздел Тема Автор DL S | L
Фильмы [HD 720p, 1080p] (Хороший звук DUB, MVO) [ 9.72 GB ] Тринадцать дней / Thirteen Days [2000 история BDRip 720p by msltel] DUB 3 x MVO AVO msltel Скачать
1 | 0
Фильмы [HD 720p, 1080p] (Хороший звук DUB, MVO) [ 25.28 GB ] Тринадцать дней / Thirteen Days [2000 история BDRip 1080p by msltel] DUB 3 x MVO AVO msltel Скачать
1 | 0
Зарубежные сериалы [ 3.09 GB ] Тринадцать / Thirteen / 1 сезон / 1-5 из 5 серий [2016 WEB-DLRip] MVO [Студия "Позитив"] bober100 Скачать
1 | 1
Фильмы [HD 720p, 1080p] (Хороший звук DUB, MVO) [ 12.24 GB ] Тринадцать / Thirteen [2003 BDRip 1080p by msltel] MVO VO msltel Скачать
1 | 0
Фильмы до 2000 г. [ 3.35 GB ] Тринадцать дней / Thirteen Days [2000 история BDRip] Dub MVO AVO Eng + Sub mihis Скачать
1 | 0
Фильмы 2001-2005 [ 1.46 GB ] Тринадцать / Thirteen [2003 биография DVDRip MVO Закадровый] Schumakher Скачать
1 | 0

28-11-2019 20:33  

Отключить всю рекламу на сайте

    Дорогой пользователь! Огромная просьба, поблагодарите релизера, оцените раздачу и оставьте свои комментарий, если Вы скачали Тринадцать через торрент бесплатно! Внесите свою лепту в развитие PiratBit!
    Комментировать посты могут только пользователи прошедшие не сложную регистрацию
    Показать сообщения:    

    Тринадцать через торрент
    Скачать бесплатно Тринадцать
    Тринадцать скачать торрент
    Тринадцать смотреть онлайн
    Cкачать фильм Тринадцать бесплатно
    Тринадцать скачать торрент в хорошем качестве
    Тринадцать смотреть онлайн бесплатно в хорошем качестве


    Вы не можете начинать темы
    Вы не можете отвечать на сообщения
    Вы не можете редактировать свои сообщения
    Вы не можете удалять свои сообщения
    Вы не можете голосовать в опросах
    Вы не можете прикреплять файлы к сообщениям
    Вы можете скачивать файлы