новый адрес пиратбит piratbit
Мега распродажа FORZA HORIZON 4 ULTIMATE+ВСЕ DLC+ОНЛАЙН всего за 499р. 349 руб. (супер цена). Внимание количество ограничено!!!

iTunes

1+1

iTunes

мы

iTunes

1

iTunes

Чернобыль

iTunes

Ральф против интернета

Лицензия

ПШазам

Лицензия

Игра престолов

Лицензия

30
pack

ВАЖНО

!!Акция!!

Alien_RageХит недели

RePack

Resident Evil 21

ИГРА 18+

pack

RePack

Metro:Exodus

!!Акция!!

Alien_Rage

RePack

fifa19

RePack

Assassins Creed: Odyssey

RePack

NEED FOR SPEED™ PAYBACK

3 сезон

9 сезон

Бесстыжие 9 сезон

Все сериалы

все сериалы на PB.wtf

RePack

FAR CRY 5
Ребята, катастрофически не хватает 1900р. для оплаты серверов за Октябрь (всвязи с блокировками трафик упал в 3 раза), 1-2р., выручайте.
  

Варвара-Краса, длинная коса (Александр Роу) [1969, СССР, сказка, драма, мелодрама, комедия, семейный, BDRip от AVP Studio] pb.wtf

Варвара-Краса, длинная коса через торрент pb.wtf

Размер: 745 MB | Добавлен: 2 года 7 мес. назад | Торрент скачан:19 раз
Скачать  

07-04-2017 09:31 Варвара-Краса, длинная коса Скачать торрент  

Варвара-Краса, длинная коса
Страна: СССP
Производство: к/ст им.Горького

Жанр: сказка, драма, мелодрама, комедия, семейный
Год выпуска: 1969
Продолжительность: 01:20:24

Перевод: Не требуется
Cубтитры: нет
Оригинальная аудиодорожка: русский

Режиссер: Александр Роу

В ролях:
Михаил Пуговкин, Георгий Милляр, Татьяна Клюева, Алексей Катышев, Сергей Николаев, Анатолий Кубацкий, Лидия Королёва, Варвара Попова, Александр Хвыля, Лев Потёмкин, Аркадий Цинман, Исаак Леонгаров, Борис Сичкин, Иван Байда, Роман Юрьев-Лунц, Валентина Ананьина, Вера Петрова, Вера Алтайская, Елизавета Кузюрина, Анастасия Зуева...
Полный список актёров

Описание:
Жил да был царь Еремей. Отправился он в годовой поход, чтобы составить опись своего царства-государства. Наклонился он как-то к колодцу напиться, но тут его и схватил подводный царь Чудо — Юдо. Да потребовал выкуп за освобождение — такой, о чем Еремей не ведал и не гадал, что оно есть в его царстве. Царь согласился, еще не зная, что в его отсутствие царица родила ему сына.
Фильм рассказывает о том, как несмотря на всевозможные коварства и интриги, Андрей рыбацкий сын и Варвара повстречались и полюбили друг друга, как царю Еремею пришлось краснеть за своего ленивого и глупого наследника, и как в конце концов все закончилось хорошо.

Источник: Blu Ray 1080p
Качество видео: BDRip
Формат видео: AVI

Видео: 720x304 (2.35:1), 25 fps, XviD ~ 1093 kbps avg, 0.200 bit/pixel
Аудио: 48 kHz, Dolby Digital AC3 2.0, 192 kbps

Раздача от:
Общее
Полное имя : Varvara-krasa.dlinnaya.kosa.1969.BDRip_[New-team]_by_AVP_Studio.avi
Формат : AVI
Формат/Информация : Audio Video Interleave
Размер файла : 745 Мбайт
Продолжительность : 1 ч. 20 м.
Общий поток : 1295 Кбит/сек
Программа кодирования : VirtualDubMod 1.5.10.3 | www.virtualdub-fr.org || (build 2550/release)
Библиотека кодирования : VirtualDubMod build 2550/release

Видео
Идентификатор : 0
Формат : MPEG-4 Visual
Профиль формата : Advanced Simple@L5
Параметр BVOP формата : 1
Параметр QPel формата : Нет
Параметр GMC формата : Без точки перехода
Параметр матрицы формата : Выборочная
Идентификатор кодека : XVID
Идентификатор кодека/Подсказка : XviD
Продолжительность : 1 ч. 20 м.
Битрейт : 1093 Кбит/сек
Ширина : 720 пикселей
Высота : 304 пикселя
Соотношение сторон : 2,35:1
Частота кадров : 25,000 кадров/сек
Цветовое пространство : YUV
Субдискретизация насыщенности : 4:2:0
Битовая глубина : 8 бит
Тип развёртки : Прогрессивная
Метод сжатия : С потерями
Бит/(Пиксели*Кадры) : 0.200
Размер потока : 629 Мбайт (84%)
Библиотека кодирования : XviD 73

Аудио
Идентификатор : 1
Формат : AC-3
Формат/Информация : Audio Coding 3
Параметр Endianness формата : Big
Идентификатор кодека : 2000
Продолжительность : 1 ч. 20 м.
Вид битрейта : Постоянный
Битрейт : 192 Кбит/сек
Каналы : 2 канала
Расположение каналов : Front: L R
Частота : 48,0 КГц
Частота кадров : 31,250 кадров/сек (1536 spf)
Битовая глубина : 16 бит
Метод сжатия : С потерями
Размер потока : 110 Мбайт (15%)
Выравнивание : Разделение по промежуткам
Продолжительность промежутка : 40 мс. (1,00 видеокадр)
Время предзагрузки промежутка : 500 мс
pb.wtf



Скачать Варвара-Краса, длинная коса через торрент http://s14.radikal.ru/i187/1704/86/aaf590594c03.png Скачать фильм Варвара-Краса, длинная коса через торрент бесплантно в хорошем качестве Описание:Жил да был царь Еремей. Отправился он в годовой поход, чтобы составить опись своего царства-государства. Наклонился он как-то к ... 10 10 2
Info! Золотая раздача, скачанное не засчитывается.
Торрент: Зарегистрирован [2017-04-07 09:31] · скачан: 19 раз
Статус: √ проверено
Размер: 745 MB
Как cкачать? Как скачать Варвара-Краса, длинная коса через торрент | qTorrent

% Раздел Тема Автор DL S | L
Кино СССР [ 1.46 GB ] Варвара-Краса длинная коса [1969 СССР сказка BDRip-AVC от AVP Studio] AVP Studio Скачать
1 | 0
Кино СССР [ 2.18 GB ] Варвара-Краса длинная коса [1969 СССР сказка BDRip 720p от AVP Studio] AVP Studio Скачать
1 | 0
Кино СССР [ 2.61 GB ] Варвара-Краса длинная коса [1969 сказка BDRip 720р] paul08 Скачать
1 | 0


>> Регистрируемся здесь <<






Отзывы и комментарии о схеме читаем и пишем здесь: ---> Отзывы и комментарии о схеме

Новые благодарочки в телеграм довольных пользователей:
скриншот   скриншот   скриншот   скриншот   скриншот
    Дорогой пользователь! Огромная просьба, поблагодарите релизера, оцените раздачу и оставьте свои комментарий, если Вы скачали Варвара-Краса, длинная коса через торрент бесплатно! Внесите свою лепту в развитие PiratBit!
    Комментировать посты могут только пользователи прошедшие не сложную регистрацию
    Показать сообщения:    

    Варвара-Краса, длинная коса через торрент
    Скачать бесплатно Варвара-Краса, длинная коса
    Варвара-Краса, длинная коса скачать торрент
    Варвара-Краса, длинная коса смотреть онлайн
    Cкачать фильм Варвара-Краса, длинная коса бесплатно
    Варвара-Краса, длинная коса скачать торрент в хорошем качестве
    Варвара-Краса, длинная коса смотреть онлайн бесплатно в хорошем качестве


    Вы не можете начинать темы
    Вы не можете отвечать на сообщения
    Вы не можете редактировать свои сообщения
    Вы не можете удалять свои сообщения
    Вы не можете голосовать в опросах
    Вы не можете прикреплять файлы к сообщениям
    Вы можете скачивать файлы