Ссылка на приватное зеркало нашего сайта всего за 1$. Внимание количество ограничено!!!

2 сезон

iTunes

1 сезон

1

iTunes

iTunes

iTunes

1 сезон

RePack

30

ИГРА 18+

pack

ВАЖНО

!!Акция!!

Alien_RageХит недели

RePack

MK11
pack

Забери бонус

RePack

jed

!!Акция!!

Alien_Rage

RePack

fifa19

RePack

Assassins Creed: Odyssey

RePack

NEED FOR SPEED™ PAYBACK

4 сезон

9 сезон

Бесстыжие 9 сезон

Все сериалы

все сериалы на PB.wtf

RePack

FAR CRY 5
  

Тарзан. Легенда / The Legend of Tarzan (Дэвид Йэтс) [2016, боевик, драма, приключения, BDRip 720p] DUB [Лицензия] pb.wtf

Тарзан. Легенда через торрент pb.wtf

Размер: 4.37 GB | Добавлен: 3 года 6 мес. назад | Торрент скачан:494 раза
Скачать  

07-04-2017 10:32 Тарзан. Легенда Скачать торрент  

Тарзан. Легенда / The Legend of Tarzan
Год выпуска: 2016
Страна: США
Жанр: боевик, драма, приключения
Продолжительность: 01:49:58
Перевод: Дубляж - [Лицензия]
Субтитры: Русские, английские

Режиссер: Дэвид Йэтс

rating

В ролях:

Александр Скарсгард, Марго Робби, Сэмюэл Л. Джексон, Кристоф Вальц, Джимон Хонсу, Джим Бродбент, Каспер Крамп, Хэдли Фрайзер, Женевьев О’Рейли, Саймон Расселл Бил

Описание:

Приспособившийся к жизни в Лондоне Тарзан возвращается в свой бывший дом, в джунгли, чтобы разобраться в том, что происходит в лагере горнодобывающей компании.

Качество: BDRip 720p
Формат: MKV
Видео кодек: H.264
Аудио кодек: AC3

Видео: 1280x534p (2.40:1), 23.976 fps, AVC MPEG-4 (H.264), High@L4.1 ~4795 kbps, 0.293 bit/pixel
Аудио#1: Русский: 48 kHz, AC3 Dolby Digital, 6 ch, ~448 kbps [Профессиональный (полное дублирование)]
Аудио#2: Английский: 48 kHz, AC3 Dolby Digital, 6 ch, ~448 kbps [Оригинал]
скриншот   скриншот   скриншот   скриншот  

Общее
Уникальный идентификатор : 216942549564814950243317634522543470585 (0xA3359D807D8F32AE86184D26AC46B7F9)
Полное имя : Tarzan.Legenda.2016.DUAL.BDRip.720p.-HELLYWOOD.mkv
Формат : Matroska
Версия формата : Version 4 / Version 2
Размер файла : 4,37 Гбайт
Продолжительность : 1 ч. 49 м.
Общий поток : 5685 Кбит/сек
Название фильма : The Legend of Tarzan (2016)
Дата кодирования : UTC 2016-10-25 19:27:41
Программа кодирования : mkvmerge v5.9.0 ('On The Loose') built on Dec 15 2012 16:39:58
Библиотека кодирования : libebml v1.3.0 + libmatroska v1.4.0

Видео
Идентификатор : 1
Формат : AVC
Формат/Информация : Advanced Video Codec
Профиль формата : High@L4.1
Параметр CABAC формата : Да
Параметр ReFrames формата : 9 кадров
Идентификатор кодека : V_MPEG4/ISO/AVC
Продолжительность : 1 ч. 49 м.
Битрейт : 4795 Кбит/сек
Ширина : 1280 пикселей
Высота : 534 пикселя
Соотношение сторон : 2,40:1
Режим частоты кадров : Постоянный
Частота кадров : 23,976 кадра/сек
Цветовое пространство : YUV
Субдискретизация насыщенности : 4:2:0
Битовая глубина : 8 бит
Тип развёртки : Прогрессивная
Бит/(Пиксели*Кадры) : 0.293
Размер потока : 3,59 Гбайт (82%)
Заголовок : potroks
Библиотека кодирования : x264 core 146 r2538 121396c
Настройки программы : cabac=1 / ref=9 / deblock=1:-2:-2 / analyse=0x3:0x113 / me=umh / subme=11 / psy=1 / psy_rd=1.00:0.05 / mixed_ref=1 / me_range=48 / chroma_me=1 / trellis=2 / 8x8dct=1 / cqm=0 / deadzone=21,11 / fast_pskip=0 / chroma_qp_offset=-3 / threads=9 / lookahead_threads=2 / sliced_threads=0 / nr=0 / decimate=0 / interlaced=0 / bluray_compat=0 / constrained_intra=0 / bframes=10 / b_pyramid=2 / b_adapt=2 / b_bias=0 / direct=3 / weightb=1 / open_gop=0 / weightp=2 / keyint=240 / keyint_min=23 / scenecut=40 / intra_refresh=0 / rc_lookahead=60 / rc=2pass / mbtree=0 / bitrate=4795 / ratetol=1.0 / qcomp=0.70 / qpmin=0 / qpmax=69 / qpstep=4 / cplxblur=20.0 / qblur=0.5 / vbv_maxrate=14000 / vbv_bufsize=14000 / nal_hrd=none / filler=0 / ip_ratio=1.40 / pb_ratio=1.30 / aq=1:0.80
Язык : English
Default : Да
Forced : Нет

Аудио #1
Идентификатор : 2
Формат : AC-3
Формат/Информация : Audio Coding 3
Расширение режима : CM (complete main)
Параметр Endianness формата : Big
Идентификатор кодека : A_AC3
Продолжительность : 1 ч. 49 м.
Вид битрейта : Постоянный
Битрейт : 448 Кбит/сек
Каналы : 6 каналов
Расположение каналов : Front: L C R, Side: L R, LFE
Частота : 48,0 КГц
Частота кадров : 31,250 кадров/сек (1536 spf)
Метод сжатия : С потерями
Размер потока : 352 Мбайт (8%)
Заголовок : Dub | DD 5.1 @ 448 kbps - Blu-ray CEE
Язык : Russian
Default : Да
Forced : Нет

Аудио #2
Идентификатор : 3
Формат : AC-3
Формат/Информация : Audio Coding 3
Расширение режима : CM (complete main)
Параметр Endianness формата : Big
Идентификатор кодека : A_AC3
Продолжительность : 1 ч. 49 м.
Вид битрейта : Постоянный
Битрейт : 448 Кбит/сек
Каналы : 6 каналов
Расположение каналов : Front: L C R, Side: L R, LFE
Частота : 48,0 КГц
Частота кадров : 31,250 кадров/сек (1536 spf)
Метод сжатия : С потерями
Размер потока : 352 Мбайт (8%)
Заголовок : Original | DD 5.1 @ 448 kbps
Язык : English
Default : Нет
Forced : Нет

Текст #1
Идентификатор : 4
Формат : UTF-8
Идентификатор кодека : S_TEXT/UTF8
Идентификатор кодека/Информация : UTF-8 Plain Text
Заголовок : Forced
Язык : Russian
Default : Да
Forced : Нет

Текст #2
Идентификатор : 5
Формат : UTF-8
Идентификатор кодека : S_TEXT/UTF8
Идентификатор кодека/Информация : UTF-8 Plain Text
Заголовок : iTunes
Язык : Russian
Default : Нет
Forced : Нет

Текст #3
Идентификатор : 6
Формат : UTF-8
Идентификатор кодека : S_TEXT/UTF8
Идентификатор кодека/Информация : UTF-8 Plain Text
Заголовок : Full
Язык : English
Default : Нет
Forced : Нет

Текст #4
Идентификатор : 7
Формат : UTF-8
Идентификатор кодека : S_TEXT/UTF8
Идентификатор кодека/Информация : UTF-8 Plain Text
Заголовок : SDH
Язык : English
Default : Нет
Forced : Нет

Меню
00:00:00.000 : en:00:00:00.000
00:10:56.239 : en:00:10:56.239
00:20:47.204 : en:00:20:47.204
00:28:26.288 : en:00:28:26.288
00:40:49.197 : en:00:40:49.197
00:51:03.310 : en:00:51:03.310
01:01:15.297 : en:01:01:15.297
01:10:22.635 : en:01:10:22.635
01:20:58.145 : en:01:20:58.145
01:29:09.344 : en:01:29:09.344
01:42:06.495 : en:01:42:06.495

pb.wtf



Скачать Тарзан. Легенда через торрент http://pic1.kartinco.top/images/11/zlop3.jpg Скачать фильм Тарзан. Легенда через торрент бесплантно в хорошем качестве Описание: Приспособившийся к жизни в Лондоне Тарзан возвращается в свой бывший дом, в джунгли, чтобы разобраться в том, что происходит в ... 8.9 10 11
Info! Золотая раздача, скачанное не засчитывается.
Торрент: Зарегистрирован [2017-04-07 10:32] · скачан: 494 раз
Статус: √ проверено
Размер: 4.37 GB
Как cкачать? Как скачать Тарзан. Легенда через торрент | qTorrent

% Раздел Тема Автор DL S | L
Ultra HD (UHD: 2K, 4K, 8K) — видео сверхвысокой чёткости [ 52.3 GB ] Тарзан. Легенда / The Legend of Tarzan [2016 UHD Blu-ray 2160p] - [] sheker187 Скачать
1 | 0
Ultra HD (UHD: 2K, 4K, 8K) — видео сверхвысокой чёткости [ 17.65 GB ] Тарзан. Легенда / The Legend of Tarzan [2016 UHD BDRip 2160p] - [] sheker187 Скачать
1 | 1
Фильмы [HD 720p, 1080p] (Хороший звук DUB, MVO) [ 5.76 GB ] Грейстоук. Легенда о Тарзане повелителе обезьян / Greystoke: The Legend of Tarzan Lord of the Apes [1984 BDRip 720p by msltel] DUB MVO 2 x AVO msltel Скачать
1 | 0
Фильмы [HD 720p, 1080p] (Хороший звук DUB, MVO) [ 15.08 GB ] Грейстоук. Легенда о Тарзане повелителе обезьян / Greystoke: The Legend of Tarzan Lord of the Apes [1984 BDRip 1080p by msltel] DUB MVO 2 x AVO msltel Скачать
1 | 0
Фильмы [HD 720p, 1080p] (Хороший звук DUB, MVO) [ 7.73 GB ] Тарзан. Легенда / The Legend of Tarzan [ BDRip 1080p] DUB + MVO potroks Скачать
2 | 0
Ultra HD (UHD: 2K, 4K, 8K) — видео сверхвысокой чёткости [ 43.48 GB ] Тарзан. Легенда / The Legend of Tarzan [2016 UHD BDRemux 2160p] DUB [] bober100 Скачать
1 | 0
Ultra HD (UHD: 2K, 4K, 8K) — видео сверхвысокой чёткости [ 50.55 GB ] Тарзан. Легенда / The Legend of Tarzan [2016 UHD WEBRip 2160p] - [] sheker187 Скачать
1 | 0

28-11-2019 20:33  

Отключить всю рекламу на сайте

    Дорогой пользователь! Огромная просьба, поблагодарите релизера, оцените раздачу и оставьте свои комментарий, если Вы скачали Тарзан. Легенда через торрент бесплатно! Внесите свою лепту в развитие PiratBit!
    Комментировать посты могут только пользователи прошедшие не сложную регистрацию
    Показать сообщения:    

    Тарзан. Легенда через торрент
    Скачать бесплатно Тарзан. Легенда
    Тарзан. Легенда скачать торрент
    Тарзан. Легенда смотреть онлайн
    Cкачать фильм Тарзан. Легенда бесплатно
    Тарзан. Легенда скачать торрент в хорошем качестве
    Тарзан. Легенда смотреть онлайн бесплатно в хорошем качестве


    Вы не можете начинать темы
    Вы не можете отвечать на сообщения
    Вы не можете редактировать свои сообщения
    Вы не можете удалять свои сообщения
    Вы не можете голосовать в опросах
    Вы не можете прикреплять файлы к сообщениям
    Вы можете скачивать файлы