Ссылка на приватное зеркало нашего сайта всего за 1$. Внимание количество ограничено!!!

2 сезон

iTunes

1 сезон

1

2 сезон

2 сезон

iTunes

1 сезон

RePack

30

Ultimate

ВАЖНО

ИГРА 18+

pack

RePack

MK11
pack

Забери бонус

RePack

jed

!!Акция!!

Alien_Rage

RePack

fifa19

RePack

Assassins Creed: Odyssey

RePack

NEED FOR SPEED™ PAYBACK

4 сезон

9 сезон

Бесстыжие 9 сезон

Все сериалы

все сериалы на PB.wtf

RePack

FAR CRY 5
  

Измерение 404 / Dimension 404 / Сезон: 1 / Серии 1-6 из 6 (Десмонд Долли / Desmond Dolly, Стивен Сидарс / Stephen Cedars, Бенжи Клейман / Benji Kleiman) [2017 , США, фантастика, WEBRip 720p] MVO [BaibaKo] pb.wtf

Измерение 404 через торрент pb.wtf

Размер: 5.37 GB | Добавлен: 3 года 7 мес. назад | Торрент скачан:52 раза
Скачать  

08-04-2017 01:48 Измерение 404 Скачать торрент  

Измерение 404 / Dimension 404


  • Год выпуска: 2017
  • Страна: США
  • Жанр: фантастика
  • Продолжительность: 00:42:38 (Серия)
  • Перевод: Профессиональный многоголосый [BaibaKo]
  • Режиссер: Десмонд Долли / Desmond Dolly, Стивен Сидарс / Stephen Cedars, Бенжи Клейман / Benji Kleiman
  • В ролях:

    Сара Хайланд (Chloe), Эшли Рикардс (Sue), Констанс Ву (Jane), Лоренца Иззо (Val), Дэниэл Дзоватто (Zach), Лиа Мишель (Amanda), Роберт Бакли (Adam), Джоэл МакХэйл (Mr. Maker), Стерлинг Бомон (Jess), Пэттон Освальт (Uncle Dusty), Меган Маллалли (Director Stevens), Том Нунен (Bob)


  • Сборник телеисторий расскажет о странностях, необычных и откровенно фантастических вещах, происходящих с людьми на просторах сети.
  • Рейтинг:



  • Качество: WEBRip 720p
  • Формат: :MKV
  • Видео кодек: AVC
  • Аудио кодек: AC3
  • Видео: 1280x720 (16:9), 1822 kbps, 23,976 fps, 0,082 bpp
  • Аудио №1: русский / 2.0 / 48 kHz / 384 kbps |[BaibaKo]|
  • Аудио №2: английский / 2.0 / 48 kHz / 384 kbps
  • Релиз от: GEKADOL

    Внимание! Раздача ведётся путём добавления новых серий; при каждом добавлении создаётся новый торрент. Чтобы начать докачку новой серии, пользователям необходимо сделать следующее:
    (1) остановить скачивание,
    (2) удалить старый торрент у себя из клиента (старые серии удалять не надо),
    (3) скачать новый торрент и запустить его у себя в клиенте вместо старого, при этом указать клиенту путь в старую папку куда и должно происходить скачивание новых серий.
    Ваш клиент при этом должен произвести хеширование (проверку) старой папки (если не производит сам - помогите ему сделать это), и будет докачивать только те серии которых у вас ещё нет. Старые серии при этом не удаляются, а продолжают раздаваться!
    Eсли вы уже удалили старые серии, то предотвратить повторную закачку старых серий можно, отжав галочку в соответствующих местах при запуске нового торрента. По возможности, желательно не удалять старые серии как можно дольше чтобы релизёр не столько продолжал раздавать старые серии, а смог сконцентрироваться на новых.

    General
    Unique ID : 198307831836891472467354252142826980768 (0x9530B2FBC3A6B107A143C1B7FB8B85A0)
    Complete name : K:\Измерение 404 (Dimension 404)\Dimension.404.s01e03.HD720p.WEBRip.Rus.Eng.BaibaKo.tv.mkv
    Format : Matroska
    Format version : Version 4 / Version 2
    File size : 791 MiB
    Duration : 42 min
    Overall bit rate : 2 593 kb/s
    Encoded date : UTC 2017-04-08 02:27:06
    Writing application : mkvmerge v10.0.0 ('To Drown In You') 64bit
    Writing library : libebml v1.3.4 + libmatroska v1.4.5

    Video
    ID : 1
    Format : AVC
    Format/Info : Advanced Video Codec
    Format profile : High@L3.1
    Format settings, CABAC : Yes
    Format settings, ReFrames : 5 frames
    Codec ID : V_MPEG4/ISO/AVC
    Duration : 42 min
    Bit rate : 1 823 kb/s
    Width : 1 280 pixels
    Height : 720 pixels
    Display aspect ratio : 16:9
    Frame rate mode : Constant
    Frame rate : 23.976 FPS
    Color space : YUV
    Chroma subsampling : 4:2:0
    Bit depth : 8 bits
    Scan type : Progressive
    Bits/(Pixel*Frame) : 0.082
    Stream size : 556 MiB (70%)
    Default : No
    Forced : No

    Audio #1
    ID : 2
    Format : AC-3
    Format/Info : Audio Coding 3
    Mode extension : CM (complete main)
    Format settings, Endianness : Big
    Codec ID : A_AC3
    Duration : 42 min
    Bit rate mode : Constant
    Bit rate : 384 kb/s
    Channel(s) : 2 channels
    Channel positions : Front: L R
    Sampling rate : 48.0 kHz
    Frame rate : 31.250 FPS (1536 spf)
    Compression mode : Lossy
    Delay relative to video : 12 ms
    Stream size : 117 MiB (15%)
    Language : Russian
    Default : Yes
    Forced : No

    Audio #2
    ID : 3
    Format : AC-3
    Format/Info : Audio Coding 3
    Mode extension : CM (complete main)
    Format settings, Endianness : Big
    Codec ID : A_AC3
    Duration : 42 min
    Bit rate mode : Constant
    Bit rate : 384 kb/s
    Channel(s) : 2 channels
    Channel positions : Front: L R
    Sampling rate : 48.0 kHz
    Frame rate : 31.250 FPS (1536 spf)
    Compression mode : Lossy
    Stream size : 117 MiB (15%)
    Language : English
    Default : No
    Forced : No



    Скриншоты:
    скриншот   скриншот   скриншот   скриншот   скриншот   скриншот   скриншот  
    скриншот  

    Раздача ведётся путём добавления новых серий. Добавлена 6 серия (26.04.2017).Просьба перекачать торрент файл.

    pb.wtf



  • Скачать Измерение 404 через торрент http://i91.fastpic.ru/big/2017/0408/1f/c08bf809a1e80d87b113540f6f0c271f.jpg Скачать фильм Измерение 404 через торрент бесплантно в хорошем качестве qw.png Сборник телеисторий расскажет о странностях, необычных и откровенно фантастических вещах, происходящих с людьми на просторах ... 8.9 10 11
    Info! Золотая раздача, скачанное не засчитывается.
    Торрент: Зарегистрирован [2017-04-26 12:26] · скачан: 52 раз
    Статус: √ проверено
    Размер: 5.37 GB
    Как cкачать? Как скачать Измерение 404 через торрент | qTorrent

    % Раздел Тема Автор DL S | L
    Зарубежные сериалы [ 4.49 GB ] Измерение 404 / Dimension 404 / Сезон 1 / Серии 1-6 из 6 [2017 WEBRip 720p] MVO [NewStudio] bober100 Скачать
    1 | 0
    Зарубежные сериалы [ 2.93 GB ] Измерение 404 / Dimension 404 / Сезон: 1 / Серии 1-6 из 6 [2017 WEBRip] [MVO] killermax2013 Скачать
    1 | 0

    28-11-2019 20:33  

    Отключить всю рекламу на сайте

      Дорогой пользователь! Огромная просьба, поблагодарите релизера, оцените раздачу и оставьте свои комментарий, если Вы скачали Измерение 404 через торрент бесплатно! Внесите свою лепту в развитие PiratBit!
      Комментировать посты могут только пользователи прошедшие не сложную регистрацию
      Показать сообщения:    

      Измерение 404 через торрент
      Скачать бесплатно Измерение 404
      Измерение 404 скачать торрент
      Измерение 404 смотреть онлайн
      Cкачать фильм Измерение 404 бесплатно
      Измерение 404 скачать торрент в хорошем качестве
      Измерение 404 смотреть онлайн бесплатно в хорошем качестве


      Вы не можете начинать темы
      Вы не можете отвечать на сообщения
      Вы не можете редактировать свои сообщения
      Вы не можете удалять свои сообщения
      Вы не можете голосовать в опросах
      Вы не можете прикреплять файлы к сообщениям
      Вы можете скачивать файлы