2 сезон

iTunes

MVO

1

2 сезон

iTunes

iTunes

1 сезон

RePack

30

Ultimate

ВАЖНО

ИГРА 18+

pack

RePack

MK11
pack

Легкие деньги

RePack

jed

RePack

fifa19

RePack

RDR2

RePack

NEED FOR SPEED™ PAYBACK

4 сезон

9 сезон

Бесстыжие 9 сезон

Все сериалы

все сериалы на PB.wtf

RePack

FAR CRY 5

Anonymous, доброй ночи, мы не успеваем собрать деньги на оплату серверов за декабрь и январь, помогите нам пожалуйста в это трудное время. В качестве благодарности мы отключим Вам всю рекламу на сайте (укажите свой ник в строку Ваше имя)!

×
  
Magnet ссылка

Морпех 5: Поле битвы / The Marine 5: Battleground (Джеймс Нанн) [2017 г., боевик, HDRip-AVC] MVO [Лицензия] от ExKinoRay pb.wtf

Морпех 5: Поле битвы через торрент pb.wtf

Размер: 1.98 GB | Добавлен: 3 года 9 мес. назад | Торрент скачан:214 раз
Скачать  

08-04-2017 03:37 Морпех 5: Поле битвы Скачать торрент  

Информация о фильме
Название: Морпех 5: Поле битвы
Оригинальное название: The Marine 5: Battleground
Год выпуска: 2017
Выпущено: США / WWE Studios
Продолжительность: 01:31:38
Жанр: Боевик
Озвучивание: Профессиональный многоголосый [Лицензия]
Субтитры: Английские
Режиссер: Джеймс Нанн
В ролях: Мариз Уэлле Мизанин, Майк Мизанин, Анна Ван Хуфт, Тринити Фату, Сэнди Робсон, Нэйтан Митчелл, Брэд Келли, Хит Миллер, Тэйлор Ротунда, Джо Хенниг

Описание: Джейк Картер - бывший морской пехотинец. Он много лет служил в армии, и в ходе многочисленных спецопераций получил бесценный боевой опыт. Теперь Джейк работает в отделении скорой помощи, находящемся в его родном городке. Однажды главный герой отвечает на экстренный вызов, который приносит ему массу неприятностей. Теперь Джейк должен будет охранять важного подозреваемого, собирающегося дать свидетельские показания. За головой этого преступника начинается настоящая охота. Но Джейк на своём веку успел принять участие и не в таких заварушках. Сможет ли морской пехотинец защитить подозреваемого?

Файл
Формат: MKV
Качество: HDRip-AVC
Видео: AVC, 1024х576 (16:9), 2190 kbps, 23,976 fps, 0,155 bpp
Аудио #01: 48 kHz, AC3, 5.1, 448 Kbps | RUS |
Аудио #02: 48 kHz, АС3, 5.1, 448 Kbps | Оригинал | ENG
Навигация по главам: есть
General
Unique ID : 242804138150803842537912921216598734440 (0xB6AA604368A7E0F4A7FE9E89454CF668)
Complete name : D:\The.Marine.5.Battleground.2017.MVO.AVC.ExKinoRay.mkv
Format : Matroska
Format version : Version 2
File size : 1.98 GiB
Duration : 1 h 31 min
Overall bit rate : 3 088 kb/s
Movie name : The Marine 5: Battleground (2017) from ExKinoRay
Encoded date : UTC 2017-04-08 02:48:08
Writing application : mkvmerge v5.8.0 ('No Sleep / Pillow') built on Sep 2 2012 15:37:04
Writing library : libebml v1.2.3 + libmatroska v1.3.0

Video
ID : 1
Format : AVC
Format/Info : Advanced Video Codec
Format profile : High@L4.1
Format settings, CABAC : Yes
Format settings, ReFrames : 12 frames
Codec ID : V_MPEG4/ISO/AVC
Duration : 1 h 31 min
Bit rate : 2 190 kb/s
Width : 1 024 pixels
Height : 576 pixels
Display aspect ratio : 16:9
Frame rate mode : Constant
Frame rate : 23.976 (24000/1001) FPS
Color space : YUV
Chroma subsampling : 4:2:0
Bit depth : 8 bits
Scan type : Progressive
Bits/(Pixel*Frame) : 0.155
Stream size : 1.36 GiB (69%)
Title : Enigma
Writing library : x264 core 144 r2525 40bb568
Encoding settings : cabac=1 / ref=12 / deblock=1:-3:-3 / analyse=0x3:0x113 / me=umh / subme=10 / psy=1 / psy_rd=1.00:0.02 / mixed_ref=1 / me_range=32 / chroma_me=1 / trellis=2 / 8x8dct=1 / cqm=0 / deadzone=21,11 / fast_pskip=1 / chroma_qp_offset=-3 / threads=12 / lookahead_threads=3 / sliced_threads=0 / nr=0 / decimate=0 / interlaced=0 / bluray_compat=0 / constrained_intra=0 / bframes=10 / b_pyramid=2 / b_adapt=2 / b_bias=0 / direct=3 / weightb=1 / open_gop=0 / weightp=2 / keyint=240 / keyint_min=23 / scenecut=40 / intra_refresh=0 / rc_lookahead=40 / rc=2pass / mbtree=0 / bitrate=2190 / ratetol=1.0 / qcomp=0.61 / qpmin=0 / qpmax=51 / qpstep=4 / cplxblur=20.0 / qblur=0.5 / vbv_maxrate=50000 / vbv_bufsize=62500 / nal_hrd=none / filler=0 / ip_ratio=1.40 / pb_ratio=1.30 / aq=1:0.90
Language : English
Default : Yes
Forced : No
Color range : Limited
Color primaries : BT.709
Transfer characteristics : BT.709
Matrix coefficients : BT.709

Audio #1
ID : 2
Format : AC-3
Format/Info : Audio Coding 3
Mode extension : CM (complete main)
Format settings, Endianness : Big
Codec ID : A_AC3
Duration : 1 h 31 min
Bit rate mode : Constant
Bit rate : 448 kb/s
Channel(s) : 6 channels
Channel positions : Front: L C R, Side: L R, LFE
Sampling rate : 48.0 kHz
Frame rate : 31.250 FPS (1536 spf)
Compression mode : Lossy
Stream size : 294 MiB (15%)
Title : MVO (Лицензия)
Language : Russian
Default : Yes
Forced : No

Audio #2
ID : 3
Format : AC-3
Format/Info : Audio Coding 3
Mode extension : CM (complete main)
Format settings, Endianness : Big
Codec ID : A_AC3
Duration : 1 h 31 min
Bit rate mode : Constant
Bit rate : 448 kb/s
Channel(s) : 6 channels
Channel positions : Front: L C R, Side: L R, LFE
Sampling rate : 48.0 kHz
Frame rate : 31.250 FPS (1536 spf)
Compression mode : Lossy
Stream size : 294 MiB (15%)
Language : English
Default : No
Forced : No

Text
ID : 4
Format : UTF-8
Codec ID : S_TEXT/UTF8
Codec ID/Info : UTF-8 Plain Text
Language : English
Default : No
Forced : No

Menu
00:00:00.000 : en:00:00:00.000
00:04:53.793 : en:00:04:53.793
00:10:28.044 : en:00:10:28.044
00:17:43.312 : en:00:17:43.312
00:22:28.597 : en:00:22:28.597
00:26:59.660 : en:00:26:59.660
00:31:01.359 : en:00:31:01.359
00:36:44.119 : en:00:36:44.119
00:41:30.780 : en:00:41:30.780
00:47:43.194 : en:00:47:43.194
00:53:52.229 : en:00:53:52.229
01:00:29.501 : en:01:00:29.501
01:06:54.636 : en:01:06:54.636
01:13:35.036 : en:01:13:35.036
01:19:06.742 : en:01:19:06.742
01:24:13.006 : en:01:24:13.006
Релиз от:

Автор релиза:

pb.wtf



Скачать Морпех 5: Поле битвы через торрент http://i90.fastpic.ru/big/2017/0329/79/8e48b5c4bbdefceff96d3415038fc679.jpg Скачать фильм Морпех 5: Поле битвы через торрент бесплантно в хорошем качестве Описание: Джейк Картер - бывший морской пехотинец. Он много лет служил в армии, и в ходе многочисленных спецопераций получил бесценный ... 8.3 10 12
Info! Золотая раздача, скачанное не засчитывается.
Торрент: Зарегистрирован [2017-04-08 03:37] · скачан: 214 раз
Статус: √ проверено
Размер: 1.98 GB
Как cкачать? Как скачать Морпех 5: Поле битвы через торрент | UTorrent

28-11-2019 20:33  

Отключить всю рекламу на сайте

08-04-2017 05:32 Морпех 5: Поле битвы Скачать торрент  

А четыре предыдущих где?pb.wtf



08-04-2017 07:01 Морпех 5: Поле битвы Скачать торрент  

zra писал(а):

А четыре предыдущих где?

говно пиндоское на любителяpb.wtf



16-04-2017 15:26 Морпех 5: Поле битвы Скачать торрент  

Этот "шедевр" даже rating не в силах оценить.pb.wtf



    Дорогой пользователь! Огромная просьба, поблагодарите релизера, оцените раздачу и оставьте свои комментарий, если Вы скачали Морпех 5: Поле битвы через торрент бесплатно! Внесите свою лепту в развитие PiratBit!
    Комментировать посты могут только пользователи прошедшие не сложную регистрацию
    Показать сообщения:    

    Морпех 5: Поле битвы через торрент
    Скачать бесплатно Морпех 5: Поле битвы
    Морпех 5: Поле битвы скачать торрент
    Морпех 5: Поле битвы смотреть онлайн
    Cкачать фильм Морпех 5: Поле битвы бесплатно
    Морпех 5: Поле битвы скачать торрент в хорошем качестве
    Морпех 5: Поле битвы смотреть онлайн бесплатно в хорошем качестве


    Вы не можете начинать темы
    Вы не можете отвечать на сообщения
    Вы не можете редактировать свои сообщения
    Вы не можете удалять свои сообщения
    Вы не можете голосовать в опросах
    Вы не можете прикреплять файлы к сообщениям
    Вы можете скачивать файлы