2 сезон

iTunes

MVO

1

2 сезон

iTunes

iTunes

1 сезон

RePack

30

Новинка

ВАЖНО

ИГРА 18+

pack

RePack

MK11
pack

Легкие деньги

RePack

jed

RePack

fifa19

RePack

RDR2

RePack

NEED FOR SPEED™ PAYBACK

4 сезон

9 сезон

Бесстыжие 9 сезон

Все сериалы

все сериалы на PB.wtf

RePack

FAR CRY 5

Anonymous, доброе утро, мы не успеваем собрать деньги на оплату серверов за декабрь и январь, помогите нам пожалуйста в это трудное время. В качестве благодарности мы отключим Вам всю рекламу на сайте (укажите свой ник в строку Ваше имя)!

×
  
Magnet ссылка

Защитники (Сарик Андреасян) [2017, фантастика, боевик, приключения, WEB-DLRip, КПК] [iTunes] pb.wtf

Защитники через торрент pb.wtf

Размер: 400 MB | Добавлен: 3 года 9 мес. назад | Торрент скачан:59 раз
Скачать  

08-04-2017 07:47 Защитники Скачать торрент  

Защитники
Год выпуска: 2017
Страна: Россия
Жанр: фантастика, фэнтези, боевик, приключения
Продолжительность: 01:29:04
Перевод: Не требуется - [Русский]
Субтитры: отсутствуют

Режиссер: Сарик Андреасян



В ролях:

Антон Пампушный, Санжар Мади, Себастьян Сисак, Алина Ланина, Станислав Ширин, Валерия Шкирандо, Вячеслав Разбегаев, Александр Семенов, Владимир Бутенко, Мила Максимова

Описание:

Во времена Холодной войны секретная организация «Патриот» создала отряд супергероев, в который вошли участники из различных советских республик. Долгие годы героям приходилось скрывать свою сущность, однако в тяжелые для страны времена они вновь берутся за дело.

Качество: WEB-DLRip
Формат: MP4
Видео кодек: H.264
Аудио кодек: AAC

Видео: 688x288 (2.40:1), 23.976 fps, AVC MPEG-4 (x264), High@L4.1, ~ 496 kbps avg, 0.100 bit/pixel
Аудио#1: 48.0 KHz, AAC LC, 2 ch, 128 Kbps
скриншот   скриншот   скриншот   скриншот   скриншот  

General
Complete name : D:\Torrent\Zashchitniki.2017.WEB-DLRip.KPK.mp4
Format : MPEG-4
Format profile : Base Media
Codec ID : isom (isom/avc1)
File size : 400 MiB
Duration : 1h 29mn
Overall bit rate mode : Variable
Overall bit rate : 628 Kbps
Encoded date : UTC 2017-04-08 06:55:24
Tagged date : UTC 2017-04-08 06:55:24

Video
ID : 1
Format : AVC
Format/Info : Advanced Video Codec
Format profile : High@L4.1
Format settings, CABAC : Yes
Format settings, ReFrames : 8 frames
Codec ID : avc1
Codec ID/Info : Advanced Video Coding
Duration : 1h 29mn
Bit rate : 496 Kbps
Maximum bit rate : 1 887 Kbps
Width : 688 pixels
Height : 288 pixels
Display aspect ratio : 2.40:1
Frame rate mode : Constant
Frame rate : 23.976 (24000/1001) fps
Color space : YUV
Chroma subsampling : 4:2:0
Bit depth : 8 bits
Scan type : Progressive
Bits/(Pixel*Frame) : 0.104
Stream size : 316 MiB (79%)
Writing library : x264 core 130 r2273 b3065e6
Encoding settings : cabac=1 / ref=8 / deblock=1:-1:-1 / analyse=0x3:0x113 / me=umh / subme=10 / psy=1 / psy_rd=1.00:0.10 / mixed_ref=1 / me_range=24 / chroma_me=1 / trellis=2 / 8x8dct=1 / cqm=0 / deadzone=21,11 / fast_pskip=0 / chroma_qp_offset=-3 / threads=12 / lookahead_threads=1 / sliced_threads=0 / nr=0 / decimate=0 / interlaced=0 / bluray_compat=0 / constrained_intra=0 / bframes=3 / b_pyramid=2 / b_adapt=2 / b_bias=0 / direct=3 / weightb=1 / open_gop=0 / weightp=2 / keyint=250 / keyint_min=23 / scenecut=40 / intra_refresh=0 / rc=2pass / mbtree=0 / bitrate=496 / ratetol=1.0 / qcomp=0.60 / qpmin=0 / qpmax=69 / qpstep=4 / cplxblur=20.0 / qblur=0.5 / ip_ratio=1.40 / pb_ratio=1.30 / aq=1:1.00
Encoded date : UTC 2017-04-08 06:55:24
Tagged date : UTC 2017-04-08 06:55:33

Audio
ID : 2
Format : AAC
Format/Info : Advanced Audio Codec
Format profile : LC
Codec ID : 40
Duration : 1h 29mn
Bit rate mode : Variable
Bit rate : 128 Kbps
Maximum bit rate : 138 Kbps
Channel(s) : 2 channels
Channel positions : Front: L R
Sampling rate : 48.0 KHz
Frame rate : 46.875 fps (1024 spf)
Compression mode : Lossy
Stream size : 81.5 MiB (20%)
Encoded date : UTC 2017-04-08 06:55:29
Tagged date : UTC 2017-04-08 06:55:33

pb.wtf



Скачать Защитники через торрент http://s020.radikal.ru/i706/1704/7d/f69c78121051.png Скачать фильм Защитники через торрент бесплантно в хорошем качестве Описание: Во времена Холодной войны секретная организация «Патриот» создала отряд супергероев, в который вошли участники из различных ... 6.9 10 8
Торрент: Зарегистрирован [2017-04-08 07:47] · скачан: 59 раз
Статус: √ проверено
Размер: 400 MB
Как cкачать? Как скачать Защитники через торрент | UTorrent

% Раздел Тема Автор DL S | L
Фильмы 2016 [DVDrip, WEB-DLRip, HDrip] (DUB, MVO) [ 1.42 GB ] Защитник / Только правда / The Whole Truth [2016 BDRip] MVO Twi7ter Скачать
31 | 0
Фильмы 2016 [DVDrip, WEB-DLRip, HDrip] (DUB, MVO) [ 745 MB ] Защитник / Только правда / The Whole Truth [2016 HDRip] MVO bober100 Скачать
2 | 0
Фильмы 2016 [DVDrip, WEB-DLRip, HDrip] (DUB, MVO) [ 1.46 GB ] Защитник / Только правда / The Whole Truth [2016 BDRip-AVC] MVO bober100 Скачать
3 | 0
Фильмы 2016 [DVDrip, WEB-DLRip, HDrip] (DUB, MVO) [ 1.46 GB ] Защитник / Только правда / The Whole Truth [2016 BDRip] MVO bober100 Скачать
3 | 0
Фильмы [HD 720p, 1080p] (Хороший звук DUB, MVO) [ 5.61 GB ] Защитник / Только правда / The Whole Truth [2016 BDRip 1080p] MVO bober100 Скачать
7 | 0
Фильмы [HD 720p, 1080p] (Хороший звук DUB, MVO) [ 3.03 GB ] Защитник / Только правда / The Whole Truth [2016 BDRip 720p] MVO bober100 Скачать
1 | 0
Зарубежные сериалы [ 7.54 GB ] Защитник / Hakan: Muhafiz / The Protector / Сезон: 3 / Серии: 1-7 из 7 [2020 WEBRip 720p] MVO [TVShows] bober100 Скачать
1 | 0

28-11-2019 20:33  

Отключить всю рекламу на сайте

08-04-2017 08:24 Защитники Скачать торрент  

За выпуск таких фильмов - вешать надо!!!pb.wtf



08-04-2017 08:58 Защитники Скачать торрент  

причем вешать режиссеров и тех кто дал деньги из национального достоянияpb.wtf



08-04-2017 10:45 Защитники Скачать торрент  

Пытался честно посмотреть "ЭТО" 2 раза, оба раза начинало тошнить спустя уже 5-7 минут. Сдался. Больше попыток не совершаю. Коплю деньги на психолога.pb.wtf



08-04-2017 12:30 Защитники Скачать торрент  

Такого говнища я ещё и не видел)pb.wtf



    Дорогой пользователь! Огромная просьба, поблагодарите релизера, оцените раздачу и оставьте свои комментарий, если Вы скачали Защитники через торрент бесплатно! Внесите свою лепту в развитие PiratBit!
    Комментировать посты могут только пользователи прошедшие не сложную регистрацию
    Показать сообщения:    

    Защитники через торрент
    Скачать бесплатно Защитники
    Защитники скачать торрент
    Защитники смотреть онлайн
    Cкачать фильм Защитники бесплатно
    Защитники скачать торрент в хорошем качестве
    Защитники смотреть онлайн бесплатно в хорошем качестве


    Вы не можете начинать темы
    Вы не можете отвечать на сообщения
    Вы не можете редактировать свои сообщения
    Вы не можете удалять свои сообщения
    Вы не можете голосовать в опросах
    Вы не можете прикреплять файлы к сообщениям
    Вы можете скачивать файлы