Ссылка на приватное зеркало нашего сайта всего за 1$. Внимание количество ограничено!!!

2 сезон

iTunes

1 сезон

1

iTunes

iTunes

iTunes

1 сезон

RePack

30

ИГРА 18+

pack

ВАЖНО

!!Акция!!

Alien_RageХит недели

RePack

MK11
pack

Забери бонус

RePack

jed

!!Акция!!

Alien_Rage

RePack

fifa19

RePack

Assassins Creed: Odyssey

RePack

NEED FOR SPEED™ PAYBACK

4 сезон

9 сезон

Бесстыжие 9 сезон

Все сериалы

все сериалы на PB.wtf

RePack

FAR CRY 5
  

Ханни Колдер / Hannie Caulder (Берт Кеннеди) [1971, драма, криминал, вестерн, BDRip 720p by msltel] MVO pb.wtf

Ханни Колдер через торрент pb.wtf

Размер: 2.78 GB | Добавлен: 3 года 6 мес. назад | Торрент скачан:88 раз
Скачать  

08-04-2017 09:44 Ханни Колдер Скачать торрент  

Название: Ханни Колдер
Оригинальное название: Hannie Caulder
Год выпуска: 1971
Страна: Великобритания
Жанр: драма, криминал, вестерн
Продолжительность: 01:25:09
Перевод: профессиональный многоголосый

Режиссёр: Берт Кеннеди

В ролях: Рэкел Уэлч, Роберт Калп, Эрнест Боргнайн, Кристофер Ли, Джек Илэм, Стразер Мартин, Дайана Дорс, Луис Барбу, Стивен Бойд

Описание: Братья Клеменс, известные преступники, ворвались на ранчо, где жили Ханни Колдер и её муж. Муж был убит, дом сожжен, а Ханни зверски изнасилована. Ханни поклялась отомстить и обратилась к стрелку-одиночке, чтобы тот научил её обращаться с оружием…



Качество: BDRip 720p
Формат: MKV
Видео: MPEG-4 AVC, 4293 Кбит/с, 1280х546, 23,976 кадра/с
Аудио 1: русский, AC3, 192 kbps, 2 ch, 48 kHz [профессиональный многоголосый, Спб, 5 канал]
Аудио 2: английский, AC3, 192 kbps, 1 ch, 48 kHz [оригинал]
Имеются неименованные главы/чаптеры.
Общее
Уникальный идентификатор : 205512375345541361725983167499159816398 (0x9A9C3E672FF0A56AA4013AA748F548CE)
Полное имя : D:\Video\Ханни Колдер.1971.BDRip.720p by msltel.mkv
Формат : Matroska
Версия формата : Version 4 / Version 2
Размер файла : 2,78 Гбайт
Продолжительность : 1 ч. 25 м.
Общий поток : 4679 Кбит/сек
Название фильма : Rip by msltel
Дата кодирования : UTC 2017-04-08 04:27:54
Программа кодирования : mkvmerge v8.2.0 ('World of Adventure') 64bit
Библиотека кодирования : libebml v1.3.1 + libmatroska v1.4.2

Видео
Идентификатор : 1
Формат : AVC
Формат/Информация : Advanced Video Codec
Профиль формата : High@L4.1
Параметр CABAC формата : Да
Параметр ReFrames формата : 9 кадров
Идентификатор кодека : V_MPEG4/ISO/AVC
Продолжительность : 1 ч. 25 м.
Битрейт : 4293 Кбит/сек
Ширина : 1280 пикселей
Высота : 546 пикселей
Соотношение сторон : 2,35:1
Режим частоты кадров : Постоянный
Частота кадров : 23,976 (24000/1001) кадра/сек
Цветовое пространство : YUV
Субдискретизация насыщенности : 4:2:0
Битовая глубина : 8 бит
Тип развёртки : Прогрессивная
Бит/(Пиксели*Кадры) : 0.256
Размер потока : 2,55 Гбайт (92%)
Библиотека кодирования : x264 core 146 r2538 121396c
Настройки программы : cabac=1 / ref=9 / deblock=1:-3:-2 / analyse=0x3:0x113 / me=umh / subme=11 / psy=1 / psy_rd=1.00:0.15 / mixed_ref=1 / me_range=32 / chroma_me=1 / trellis=2 / 8x8dct=1 / cqm=0 / deadzone=21,11 / fast_pskip=0 / chroma_qp_offset=-3 / threads=6 / lookahead_threads=1 / sliced_threads=0 / nr=0 / decimate=1 / interlaced=0 / bluray_compat=0 / constrained_intra=0 / bframes=10 / b_pyramid=2 / b_adapt=2 / b_bias=0 / direct=1 / weightb=1 / open_gop=0 / weightp=2 / keyint=230 / keyint_min=23 / scenecut=40 / intra_refresh=0 / rc_lookahead=40 / rc=crf / mbtree=0 / crf=19.6 / qcomp=0.60 / qpmin=0 / qpmax=69 / qpstep=4 / vbv_maxrate=62500 / vbv_bufsize=78125 / crf_max=0.0 / nal_hrd=none / filler=0 / ip_ratio=1.40 / pb_ratio=1.30 / aq=1:1.00
Язык : English
Default : Да
Forced : Нет

Аудио #1
Идентификатор : 2
Формат : AC-3
Формат/Информация : Audio Coding 3
Параметр Endianness формата : Big
Идентификатор кодека : A_AC3
Продолжительность : 1 ч. 25 м.
Вид битрейта : Постоянный
Битрейт : 192 Кбит/сек
Каналы : 2 канала
Расположение каналов : Front: L R
Частота : 48,0 КГц
Частота кадров : 31,250 кадров/сек (1536 spf)
Битовая глубина : 16 бит
Метод сжатия : С потерями
Размер потока : 117 Мбайт (4%)
Заголовок : MVO (Спб, 5 канал)
Язык : Russian
ServiceKind/String : Complete Main
Default : Нет
Forced : Нет

Аудио #2
Идентификатор : 3
Формат : AC-3
Формат/Информация : Audio Coding 3
Параметр Endianness формата : Big
Идентификатор кодека : A_AC3
Продолжительность : 1 ч. 25 м.
Вид битрейта : Постоянный
Битрейт : 192 Кбит/сек
Каналы : 1 канал
Расположение каналов : Front: C
Частота : 48,0 КГц
Частота кадров : 31,250 кадров/сек (1536 spf)
Битовая глубина : 16 бит
Метод сжатия : С потерями
Размер потока : 117 Мбайт (4%)
Заголовок : original
Язык : English
ServiceKind/String : Complete Main
Default : Нет
Forced : Нет

Меню
00:00:00.000 : :Chapter 01
00:08:29.759 : :Chapter 02
00:17:41.477 : :Chapter 03
00:32:07.467 : :Chapter 04
00:45:43.407 : :Chapter 05
00:57:32.740 : :Chapter 06
01:07:42.182 : :Chapter 07
01:18:30.372 : :Chapter 08
pb.wtf



Скачать Ханни Колдер через торрент http://hostpic.gq/img/2017-04/08/23qmsokb0qviwm2s4zfle1zm4.jpg Скачать фильм Ханни Колдер через торрент бесплантно в хорошем качестве Описание: Братья Клеменс, известные преступники, ворвались на ранчо, где жили Ханни Колдер и её муж. Муж был убит, дом сожжен, а Ханни ... 9.5 10 2
Торрент: Зарегистрирован [2017-04-08 09:44] · скачан: 88 раз
Статус: √ проверено
Размер: 2.78 GB
Как cкачать? Как скачать Ханни Колдер через торрент | qTorrent

% Раздел Тема Автор DL S | L
Фильмы [HD 720p, 1080p] (Хороший звук DUB, MVO) [ 6.38 GB ] Ханни Колдер / Hannie Caulder [1971 BDRip 1080p by msltel] MVO msltel Скачать
1 | 0

28-11-2019 20:33  

Отключить всю рекламу на сайте

    Дорогой пользователь! Огромная просьба, поблагодарите релизера, оцените раздачу и оставьте свои комментарий, если Вы скачали Ханни Колдер через торрент бесплатно! Внесите свою лепту в развитие PiratBit!
    Комментировать посты могут только пользователи прошедшие не сложную регистрацию
    Показать сообщения:    

    Ханни Колдер через торрент
    Скачать бесплатно Ханни Колдер
    Ханни Колдер скачать торрент
    Ханни Колдер смотреть онлайн
    Cкачать фильм Ханни Колдер бесплатно
    Ханни Колдер скачать торрент в хорошем качестве
    Ханни Колдер смотреть онлайн бесплатно в хорошем качестве


    Вы не можете начинать темы
    Вы не можете отвечать на сообщения
    Вы не можете редактировать свои сообщения
    Вы не можете удалять свои сообщения
    Вы не можете голосовать в опросах
    Вы не можете прикреплять файлы к сообщениям
    Вы можете скачивать файлы