Ссылка на приватное зеркало нашего сайта всего за 1$. Внимание количество ограничено!!!

2 сезон

iTunes

1 сезон

1

iTunes

iTunes

iTunes

1 сезон

RePack

30

ИГРА 18+

pack

ВАЖНО

!!Акция!!

Alien_RageХит недели

RePack

MK11
pack

Забери бонус

RePack

jed

!!Акция!!

Alien_Rage

RePack

fifa19

RePack

Assassins Creed: Odyssey

RePack

NEED FOR SPEED™ PAYBACK

4 сезон

9 сезон

Бесстыжие 9 сезон

Все сериалы

все сериалы на PB.wtf

RePack

FAR CRY 5
  

Улыбка Лиса / Серия 1-4 из 4 (Игорь Драка) [2017 г., Детектив, Мелодрама, SATRip] pb.wtf

Улыбка Лиса через торрент pb.wtf

Размер: 2.36 GB | Добавлен: 3 года 6 мес. назад | Торрент скачан:118 раз
Скачать  

08-04-2017 10:44 Улыбка Лиса Скачать торрент  

Улыбка Лиса
Год выпуска: 2017
Страна: Россия
Жанр: Детектив, Мелодрама
Продолжительность: 4 x ~ 00:45:00
Субтитры: нет

Режиссер: Игорь Драка

В ролях: Алиса Варова, Алексей Нилов, Михаил Тарабукин, Галина Сумина, Татьяна Тузова, Максим Меркулов, Артур Литвинов, Валентин Кузнецов, Роман Жилкин

Описание: Когда-то восемь студентов-биохимиков были друзьями. С тех пор многое изменилось, кроме привычки называть друг друга старыми прозвищами. В студенческие годы у Татьяны, которую друзья называют Бэль, и Академика был роман. Однако после громкого скандала, компрометирующего любимого, девушка вышла замуж за давно влюблённого в неё Балагура. Спустя десять лет на встрече однокурсников, которые собрались в доме Бэль и Балагура, появляется Академик. Между незваным гостем и хозяином дома возникает ссора. После ухода Академика друзья распивают коктейль собственного изобретения – "Улыбка Лиса". На следующее утро Балагур не просыпается, а в отравлении мужа подозревают Бэль, как главную наследницу его состояния. Позже выясняется, что ночью, когда все друзья спали, в дом возвращался Академик…

Качество: SATRip
Формат: AVI
Видео кодек: XviD
Аудио кодек: MP3
Видео: 720x400 (1.80:1), 25 fps, XviD build 50 ~1800 kbps avg, 0.25 bit/pixel
Аудио#1: 48 kHz, MPEG Layer 3, 2 ch, ~128.00 kbps avg



General
Complete name : H:\релизы.торрентфайл\Ulybka.Lisa.SATRip.[riperam.org]\Ulybka.Lisa.01.SATRip.[riperam.org].avi
Format : AVI
Format/Info : Audio Video Interleave
File size : 613 MiB
Duration : 44mn 13s
Overall bit rate : 1 938 Kbps
Writing application : VirtualDubMod 1.5.10.3 | www.virtualdub-fr.org || (build 2550/release)
Writing library : VirtualDubMod build 2550/release

Video
ID : 0
Format : MPEG-4 Visual
Format profile : Advanced Simple@L5
Format settings, BVOP : 2
Format settings, QPel : No
Format settings, GMC : No warppoints
Format settings, Matrix : Default (H.263)
Codec ID : XVID
Codec ID/Hint : XviD
Duration : 44mn 13s
Bit rate : 1 800 Kbps
Width : 720 pixels
Height : 400 pixels
Display aspect ratio : 16:9
Frame rate : 25.000 fps
Color space : YUV
Chroma subsampling : 4:2:0
Bit depth : 8 bits
Scan type : Progressive
Compression mode : Lossy
Bits/(Pixel*Frame) : 0.250
Stream size : 569 MiB (93%)
Writing library : XviD 1.2.1 (UTC 2008-12-04)

Audio
ID : 1
Format : MPEG Audio
Format version : Version 1
Format profile : Layer 3
Mode : Joint stereo
Mode extension : MS Stereo
Codec ID : 55
Codec ID/Hint : MP3
Duration : 44mn 13s
Bit rate mode : Constant
Bit rate : 128 Kbps
Channel(s) : 2 channels
Sampling rate : 48.0 KHz
Compression mode : Lossy
Stream size : 40.5 MiB (7%)
Alignment : Aligned on interleaves
Interleave, duration : 40 ms (1.00 video frame)
Interleave, preload duration : 504 ms
Writing library : LAME3.99r
Encoding settings : -m j -V 4 -q 9 -lowpass 17 -b 128

Внимание! Раздача ведётся путём добавления новых серий; при каждом добавлении создётся новый торрент. Чтобы начать докачку новой серии, пользователям необходимо сделать следующее:
  • Остановить скачивание,
  • Удалить старый торрент у себя из клиента (старые серии удалять не надо),
  • Скачать новый торрент и запустить его у себя в клиенте вместо старого, при этом указать клиенту путь в старую папку куда и должно происходить скачивание новых серий.
Ваш клиент при этом должен произвести хеширование (проверку) старой папки (если не производит сам - помогите ему сделать это), и будет докачивать только те серии которых у вас ещё нет. Старые серии при этом не удаляются, а продолжают раздаваться!

Eсли вы уже удалили старые серии, то предотвратить повторную закачку старых серий можно, отжав галочку в соответсвующих местах при запуске нового торрента. По возможности, желательно не удалять старые серии как можно дольше чтобы релизёр не столько продолжал раздавать старые серии, а смог сконцентрироваться на новых.
pb.wtf



Скачать Улыбка Лиса через торрент http://pic1.kartinco.top/images/11/ny6gh.jpg Скачать фильм Улыбка Лиса через торрент бесплантно в хорошем качестве Описание: Когда-то восемь студентов-биохимиков были друзьями. С тех пор многое изменилось, кроме привычки называть друг друга старыми ... 10 10 4
Info! Золотая раздача, скачанное не засчитывается.
Торрент: Зарегистрирован [2017-04-08 12:01] · скачан: 118 раз
Статус: √ проверено
Размер: 2.36 GB
Как cкачать? Как скачать Улыбка Лиса через торрент | qTorrent

28-11-2019 20:33  

Отключить всю рекламу на сайте

08-04-2017 12:04 Улыбка Лиса Скачать торрент  

Добавленна3-4 серия,сериал весь.pb.wtf



    Дорогой пользователь! Огромная просьба, поблагодарите релизера, оцените раздачу и оставьте свои комментарий, если Вы скачали Улыбка Лиса через торрент бесплатно! Внесите свою лепту в развитие PiratBit!
    Комментировать посты могут только пользователи прошедшие не сложную регистрацию
    Показать сообщения:    

    Улыбка Лиса через торрент
    Скачать бесплатно Улыбка Лиса
    Улыбка Лиса скачать торрент
    Улыбка Лиса смотреть онлайн
    Cкачать фильм Улыбка Лиса бесплатно
    Улыбка Лиса скачать торрент в хорошем качестве
    Улыбка Лиса смотреть онлайн бесплатно в хорошем качестве


    Вы не можете начинать темы
    Вы не можете отвечать на сообщения
    Вы не можете редактировать свои сообщения
    Вы не можете удалять свои сообщения
    Вы не можете голосовать в опросах
    Вы не можете прикреплять файлы к сообщениям
    Вы можете скачивать файлы