>

5.6

iTunes

6.1

MVO

5.7

MVO

1

7.4

1 сезон

6.8

iTunes

7.2

1 сезон

13

6.7

1 сезон

8.3

RePack

30

Deluxe

pack

9.9

Лицензия

ВАЖНО

ИГРА 18+

pack

7.3

RePack

MK11

7.7

RePack

jed

7.8

RePack

fifa19

8.5

RePack

RDR2

RePack

NEED FOR SPEED™ PAYBACK

4 сезон

9 сезон

Бесстыжие 9 сезон

Все сериалы

все сериалы на PB.wtf

RePack

FAR CRY 5

Anonymous, добрый день, мы катастрофически не успеваем собрать деньги на оплату серверов, помогите нам пожалуйста 5,10,15р., для нас важна любая помощь . В качестве благодарности мы отключим Вам всю рекламу на сайте (укажите свой ник в строку Ваше имя)!

×
  
Magnet ссылка

Орленок (Эдуард Бочаров) [1957, СССР, детский, военный, SATRip от AVP Studio] pb.wtf

Орленок через торрент pb.wtf

Размер: 745 MB | Добавлен: 4 года 5 мес. назад | Торрент скачан:9 раз
Смотреть онлайн Орленок | Скачать    Ребята, помогите собрать деньги на оплату серверов!!!

09-04-2017 07:38 Орленок Скачать торрент  

Орленок
Страна: СССР
Производство: Одесская киностудия

Жанр: детский, военный
Год выпуска: 1957
Продолжительность: 01:13:39

Перевод: Не требуется
Cубтитры: нет
Оригинальная аудиодорожка: русский

Режиссер: Эдуард Бочаров

В ролях:
Жора Стремовский, Саша Галака, Руслан Беспалов, Наташа Чернявская, Слава Лактюшин, Слава Ивлев, Станислава Шиманская, Алла Ролик, Владимир Маренков, Петр Большаков, Степан Крылов, В. Политимский, Клавдия Бунина, Константин Кульчицкий, Алексей Бунин, Иван Кононенко-Козельский...
Об актёрах подробней

Описание:
Осень 1941 года. Маленькое украинское местечко совсем еще недавно жило полнокровной трудовой жизнью, а сейчас страх повис над опустевшим селением, плотно закрыл двери домов, ставни окон. Люди пытались преградить дорогу страху, но он змеей проползал через разбитые стекла, проникал сквозь каждую щель вместо с гортанной чужой речью, резкими, как удар хлыста, словами команды. И, казалось,— никуда от него не уйти: он везде найдет, догонит и сожмет сердце...

Источник: DVB
Качество видео: SATRip
Формат видео: AVI

Видео: 688x512 (4:3), 25 fps, XviD ~ 1276 kbps avg, 0.145 bit/pixel
Аудио: 48 kHz, MP3 2.0, 128 kbps

Раздача от:
Общее
Полное имя : E:\Tracker\2017\Орленок\Orlenok.1957.SATRip_[New-team]_by_AVP_Studio.avi
Формат : AVI
Формат/Информация : Audio Video Interleave
Размер файла : 745 Мбайт
Продолжительность : 1 ч. 13 м.
Общий поток : 1414 Кбит/сек
Программа кодирования : VirtualDubMod 1.5.10.3 | www.virtualdub-fr.org || (build 2550/release)
Библиотека кодирования : VirtualDubMod build 2550/release

Видео
Идентификатор : 0
Формат : MPEG-4 Visual
Профиль формата : Advanced Simple@L5
Параметр BVOP формата : 1
Параметр QPel формата : Нет
Параметр GMC формата : Без точки перехода
Параметр матрицы формата : Выборочная
Идентификатор кодека : XVID
Идентификатор кодека/Подсказка : XviD
Продолжительность : 1 ч. 13 м.
Битрейт : 1276 Кбит/сек
Ширина : 688 пикселей
Высота : 512 пикселей
Соотношение сторон : 4:3
Частота кадров : 25,000 кадров/сек
Цветовое пространство : YUV
Субдискретизация насыщенности : 4:2:0
Битовая глубина : 8 бит
Тип развёртки : Прогрессивная
Метод сжатия : С потерями
Бит/(Пиксели*Кадры) : 0.145
Размер потока : 672 Мбайт (90%)
Библиотека кодирования : XviD 73

Аудио
Идентификатор : 1
Формат : MPEG Audio
Версия формата : Version 1
Профиль формата : Layer 3
Идентификатор кодека : 55
Идентификатор кодека/Подсказка : MP3
Продолжительность : 1 ч. 13 м.
Вид битрейта : Постоянный
Битрейт : 128 Кбит/сек
Каналы : 2 канала
Частота : 48,0 КГц
Метод сжатия : С потерями
Размер потока : 67,4 Мбайт (9%)
Выравнивание : Соединение по промежуткам
Продолжительность промежутка : 40 мс. (1,00 видеокадр)
Время предзагрузки промежутка : 504 мс.
Библиотека кодирования : LAME3.99r
Настройки программы : -m s -V 4 -q 2 -lowpass 17 -b 128
pb.wtf



Скачать Орленок через торрент http://s012.radikal.ru/i319/1704/aa/4dc9650372d2.png Скачать, смотреть онлайн Орленок бесплантно в хорошем качестве Описание:Осень 1941 года. Маленькое украинское местечко совсем еще недавно жило полнокровной трудовой жизнью, а сейчас страх повис над ... 10 10 1
Info! Золотая раздача, скачанное не засчитывается.
Торрент: Зарегистрирован [2017-04-09 07:38] · скачан: 9 раз
Статус: √ проверено
Размер: 745 MB
Как cкачать? Как скачать Орленок через торрент | UTorrent

% Раздел Тема Автор DL S | L
Кино СССР [ 1.09 GB ] Орленок [1957 СССР детский военный SATRip-AVC от AVP Studio] AVP Studio Скачать
1 | 0

28-11-2019 20:33  

Отключить всю рекламу на сайте

    Дорогой пользователь! Огромная просьба, поблагодарите релизера, оцените раздачу и оставьте свои комментарий, если Вы скачали Орленок через торрент бесплатно!
    Комментировать посты могут только пользователи прошедшие не сложную регистрацию
    Показать сообщения:    

    Орленок через торрент
    Скачать бесплатно Орленок
    Орленок скачать торрент
    Орленок смотреть онлайн
    Cкачать фильм Орленок бесплатно
    Орленок скачать торрент в хорошем качестве
    Орленок смотреть онлайн бесплатно в хорошем качестве


    Вы не можете начинать темы
    Вы не можете отвечать на сообщения
    Вы не можете редактировать свои сообщения
    Вы не можете удалять свои сообщения
    Вы не можете голосовать в опросах
    Вы не можете прикреплять файлы к сообщениям
    Вы можете скачивать файлы