Ссылка на приватное зеркало нашего сайта всего за 1$. Внимание количество ограничено!!!

2 сезон

iTunes

1 сезон

1

iTunes

iTunes

iTunes

1 сезон

RePack

30

ИГРА 18+

pack

ВАЖНО

!!Акция!!

Alien_RageХит недели

RePack

MK11
pack

Забери бонус

RePack

jed

!!Акция!!

Alien_Rage

RePack

fifa19

RePack

Assassins Creed: Odyssey

RePack

NEED FOR SPEED™ PAYBACK

4 сезон

9 сезон

Бесстыжие 9 сезон

Все сериалы

все сериалы на PB.wtf

RePack

FAR CRY 5
  

220 Вольт Любви / 1-9 серии из 9 (Владимир Филимонов) [2009, комедия, фантастика, мелодрама, приключения, HDRip] pb.wtf

220 Вольт Любви через торрент pb.wtf

Размер: 4.84 GB | Добавлен: 3 года 6 мес. назад | Торрент скачан:58 раз
Скачать  

09-04-2017 19:09 220 Вольт Любви Скачать торрент  

220 Вольт ЛюбвиГод выпуска: 2009
Страна: Россия
Жанр: комедия, фантастика, мелодрама, приключения
Продолжительность: 9 х 00:45:00
Субтитры: отсутствуют

Режиссер: Владимир Филимонов



В ролях:

Елена Великанова, Антон Кукушкин, Алёна Яковлева, Грегори-Саид Багов, Игорь Золотовицкий, Елена Ташаева, Сергей Бурунов, Ян Цапник, Константин Соловьёв, Андрей Григорьев-Апполонов, Людмила Артемьева, Алексей Нилов, Георгий (Егор) Дронов, Екатерина Мадалинская, Вячеслав Гугиев, Ирина Лукина, Виталий Альшанский

Описание:

Дочь метеоролога Маша Нечаева отправляется из глубокой тундры в Москву, чтобы получить квартиру, доставшуюся ей по наследству. Опасаясь неприятностей, которые могут поджидать Машу на «Большой Земле» местный шаман производит древний магический обряд и оживляет мобильный телефон. С этого момента телефон становится Машиным оберегом, призванным защищать ее от всех бед. Однако телефон довольно плохо справляется со своими обязанностями, и в первый же день Маша остается без денег, едва не лишается квартиры и, в конце концов, попадает под колеса автомобиля, за рулем которого оказывается звезда эстрады — певец по имени Аполлон. Чтобы замять неприятный инцидент, продюсер Аполлона Маргарита Терновская нанимает Машу на работу уборщицей в свой продюсерский центр. Оказавшись в продюсерском центре Терновской, Маша с головой погружается в мир отечественного шоубизнеса, а телефон находит своих старых друзей — компьютерную мышь и пылесос, оживленных когда-то шаманом. И с этого момента на Машу обрушивается втрое больше неприятностей..

Качество: HDRip
Формат: AVI
Видео кодек: XviD
Аудио кодек: AC3

Видео: 720x400 (1.80:1), 25 fps, XviD MPEG-4 ~1477 kbps avg, 0.205 bit/pixel
Аудио#1: 48 kHz, AC3 Dolby Digital, 2/0 (L,R) ch, ~192.00 kbps avg
скриншот   скриншот   скриншот   скриншот  

Общее
Полное имя : D:\220.volt.ljubvi.2010.HDRip.KinozalSAT\220.volt.ljubvi.01.serija.2010.HDRip.KinozalSAT.avi
Формат : AVI
Формат/Информация : Audio Video Interleave
Размер файла : 551 Мбайт
Продолжительность : 45 м. 49 с.
Общий поток : 1680 Кбит/сек
Программа кодирования : VirtualDubMod 1.5.4.1 (build 2178/release)
Библиотека кодирования : VirtualDubMod build 2178/release

Видео
Идентификатор : 0
Формат : MPEG-4 Visual
Профиль формата : Advanced Simple@L5
Параметр BVOP формата : Нет
Параметр QPel формата : Нет
Параметр GMC формата : Без точки перехода
Параметр матрицы формата : Выборочная
Идентификатор кодека : XVID
Идентификатор кодека/Подсказка : XviD
Продолжительность : 45 м. 49 с.
Битрейт : 1478 Кбит/сек
Ширина : 720 пикселей
Высота : 400 пикселей
Соотношение сторон : 16:9
Частота кадров : 25,000 кадров/сек
Цветовое пространство : YUV
Субдискретизация насыщенности : 4:2:0
Битовая глубина : 8 бит
Тип развёртки : Прогрессивная
Метод сжатия : С потерями
Бит/(Пиксели*Кадры) : 0.205
Размер потока : 484 Мбайт (88%)
Библиотека кодирования : XviD 1.2.1 (UTC 2008-12-04)

Аудио
Идентификатор : 1
Формат : AC-3
Формат/Информация : Audio Coding 3
Расширение режима : CM (complete main)
Параметр Endianness формата : Big
Идентификатор кодека : 2000
Продолжительность : 45 м. 49 с.
Вид битрейта : Постоянный
Битрейт : 192 Кбит/сек
Каналы : 2 канала
Расположение каналов : Front: L R
Частота : 48,0 КГц
Частота кадров : 31,250 кадров/сек (1536 spf)
Метод сжатия : С потерями
Размер потока : 62,9 Мбайт (11%)
Выравнивание : Разделение по промежуткам
Продолжительность промежутка : 40 мс. (1,00 видеокадр)
Время предзагрузки промежутка : 500 мс.

pb.wtf



Скачать 220 Вольт Любви через торрент http://s019.radikal.ru/i616/1704/9d/27602d981c7a.jpg Скачать фильм 220 Вольт Любви через торрент бесплантно в хорошем качестве Описание: Дочь метеоролога Маша Нечаева отправляется из глубокой тундры в Москву, чтобы получить квартиру, доставшуюся ей по наследству. ... 10 10 3
Торрент: Зарегистрирован [2017-04-09 19:09] · скачан: 58 раз
Статус: √ проверено
Размер: 4.84 GB
Как cкачать? Как скачать 220 Вольт Любви через торрент | qTorrent

28-11-2019 20:33  

Отключить всю рекламу на сайте

    Дорогой пользователь! Огромная просьба, поблагодарите релизера, оцените раздачу и оставьте свои комментарий, если Вы скачали 220 Вольт Любви через торрент бесплатно! Внесите свою лепту в развитие PiratBit!
    Комментировать посты могут только пользователи прошедшие не сложную регистрацию
    Показать сообщения:    

    220 Вольт Любви через торрент
    Скачать бесплатно 220 Вольт Любви
    220 Вольт Любви скачать торрент
    220 Вольт Любви смотреть онлайн
    Cкачать фильм 220 Вольт Любви бесплатно
    220 Вольт Любви скачать торрент в хорошем качестве
    220 Вольт Любви смотреть онлайн бесплатно в хорошем качестве


    Вы не можете начинать темы
    Вы не можете отвечать на сообщения
    Вы не можете редактировать свои сообщения
    Вы не можете удалять свои сообщения
    Вы не можете голосовать в опросах
    Вы не можете прикреплять файлы к сообщениям
    Вы можете скачивать файлы